Support M-HDdl
Results 1 to 2 of 2
  1. #1
    VIP
    This is Shadow_Whisper's Country Flag

    Shadow_Whisper's Avatar
    Join Date
    Apr 2014
    Posts
    4,285
    Total 'Thanks' Received by This User
    For This Post
    4

    Total
    172

    Ranks Showcase
    Total Ranks: 1

    Rep Power
    45

    MULTI The Walking Dead S08E01 480p WEB-DL DD5 1 H264-Shadow


    Release Date: Oct 24, 2016|Season 08|Episode: 01|Real HD-480p-MKV|Single Link



    Airs on: United States AMC (2010 - now)
    Scheduled: Sundays at 21:00
    Status: Running
    Show Type: Scripted
    Genres: Drama Action Horror
    Episodes ordered: 16 episodes




    The Walking Dead tells the story of the months and years that follow after a zombie apocalypse. It follows a group of survivors, led by police officer Rick Grimes, who travel in search of a safe and secure home. The comic goes on to explore the challenges of life in a world overrun by zombies who take a toll on the survivors, and sometimes the interpersonal conflicts present a greater danger to their continuing survival than the zombies that roam the country. Over time, the characters are changed by the constant exposure to death and some grow willing to do anything to survive.



    General
    Format : Matroska
    Format version : Version 4 / Version 2
    File size : 702 MiB
    Duration : 47 min 14 s
    Overall bit rate mode : Variable
    Overall bit rate : 2 078 kb/s
    Release name : The Walking Dead S08E01 480p WEB-DL DD5 1 H264-Shadow
    Encoded date : UTC 2017-10-24 10:17:34
    Writing application : mkvmerge v14.0.0 ('Flow') 32bit
    Writing library : libebml v1.3.4 + libmatroska v1.4.5


    Video
    ID : 1
    Format : AVC
    Format/Info : Advanced Video Codec
    Format profile : High@L3
    Format settings, CABAC : Yes
    Format settings, ReFrames : 5 frames
    Codec ID : V_MPEG4/ISO/AVC
    Duration : 47 min 14 s
    Bit rate mode : Variable
    Bit rate : 1 693 kb/s
    Maximum bit rate : 10 000 kb/s
    Width : 752 pixels
    Height : 424 pixels
    Display aspect ratio : 16:9
    Frame rate mode : Constant
    Frame rate : 23.976 (24000/1001) FPS


    Audio
    ID : 2
    Format : AC-3
    Format/Info : Audio Coding 3
    Format settings, Endianness : Big
    Codec ID : A_AC3
    Duration : 47 min 14 s
    Bit rate mode : Constant
    Bit rate : 384 kb/s
    Channel(s) : 6 channels
    Channel positions : Front: L C R, Side: L R, LFE
    Sampling rate : 48.0 kHz
    Frame rate : 31.250 FPS (1536 spf)
    Bit depth : 16 bits
    Compression mode : Lossy
    Stream size : 130 MiB (18%)
    Language : English
    Service kind : Complete Main
    Default : Yes
    Forced : No


    Text
    ID : 3
    Format : UTF-8
    Codec ID : S_TEXT/UTF8
    Codec ID/Info : UTF-8 Plain Text
    Duration : 44 min 57 s
    Bit rate : 26 b/s
    Count of elements : 350
    Stream size : 8.70 KiB (0%)
    Language : English
    Default : No
    Forced : No








    Code:


    You must either reply or click 'Thank You' to see the hidden information contained here.
    You do not have sufficient rights to see the hidden data contained here.


    Note: Archive was done with RAR5 Method, updating to latest version of WinRAR is required.
    Last edited by Shadow_Whisper; 10-25-2017 at 01:16 PM.
    Reply With Quote Reply With Quote
    Send PM  

  2. Who Said Thanks:

    ponaskarpis (08-21-2018), DigitALL (11-09-2017), bobobobelkraut (11-07-2017), springtime (10-25-2017)



  • #2
    Junior Member
    This is afromac's Country Flag

    afromac's Avatar
    Join Date
    Aug 2013
    Posts
    27
    Total 'Thanks' Received by This User
    For This Post
    0

    Total
    0
    Rep Power
    0
    big thanks
    Reply With Quote Reply With Quote
    Send PM  


  • Similar Threads

    1. [MULTI] The Walking Dead S08E01 1080p WEB H264 STRiFE
      By RobertoWarez in forum 720p & 1080p TV Shows & Documentaries
      Replies: 0
      Last Post: 10-23-2017, 11:00 AM
    2. [MULTI] The Walking Dead S07E06 480p WEB-DL DD5.1 H.264-Shadow
      By Shadow_Whisper in forum Graveyard
      Replies: 0
      Last Post: 11-29-2016, 11:39 AM
    3. [MULTI] The Walking Dead S07E05 480p WEB-DL DD5.1 H.264-Shadow
      By Shadow_Whisper in forum Graveyard
      Replies: 0
      Last Post: 11-22-2016, 10:54 AM
    4. [MULTI] The Walking Dead S07E04 480p WEB-DL DD5.1 H.264-Shadow
      By Shadow_Whisper in forum Graveyard
      Replies: 0
      Last Post: 11-15-2016, 08:32 AM
    5. [MULTI] The Walking Dead S07E04 480p WEB-DL DD5.1 H.264-Shadow
      By Shadow_Whisper in forum Graveyard
      Replies: 0
      Last Post: 11-15-2016, 08:30 AM

    Tags for this Thread

    Bookmarks

    Posting Permissions

    • You may not post new threads
    • You may not post replies
    • You may not post attachments
    • You may not edit your posts
    •