Support M-HDdl
Results 1 to 1 of 1
  1. #1
    VIP
    This is Shadow_Whisper's Country Flag

    Shadow_Whisper's Avatar
    Join Date
    Apr 2014
    Posts
    4,262
    Total 'Thanks' Received by This User
    For This Post
    0

    Total
    166

    Ranks Showcase
    Total Ranks: 1

    Rep Power
    44

    MULTI The Walking Dead S07E04 480p WEB-DL DD5.1 H.264-Shadow


    Release Date: Nov 14, 2016|Season 07|Episode: 04|Real HD-1080p-MKV|Single LinkAirs on: United States AMC (2010 - now)Scheduled: Sundays at 21:00Status: RunningShow Type: ScriptedGenres: Drama Action HorrorEpisodes ordered: 16 episodes
    The Walking Dead tells the story of the months and years that follow after a zombie apocalypse. It follows a group of survivors, led by police officer Rick Grimes, who travel in search of a safe and secure home. The comic goes on to explore the challenges of life in a world overrun by zombies who take a toll on the survivors, and sometimes the interpersonal conflicts present a greater danger to their continuing survival than the zombies that roam the country. Over time, the characters are changed by the constant exposure to death and some grow willing to do anything to survive.
    GeneralFormat : MatroskaFormat version : Version 4 / Version 2File size : 1.14 GiBDuration : 59 min 40 sOverall bit rate mode : VariableOverall bit rate : 2 730 kb/sMovie name : The Walking Dead S07E04 480p WEB-DL DD5 1 H 264-ShadowEncoded date : UTC 2016-11-14Source : The Walking Dead S07E04 1080p WEB-DL DD5 1 H 264-CyphanixVideoID : 1Format : AVCFormat/Info : Advanced Video CodecFormat profile : High@L3Format settings, CABAC : YesFormat settings, ReFrames : 5 framesCodec ID : V_MPEG4/ISO/AVCDuration : 59 min 40 sBit rate mode : VariableBit rate : 2 345 kb/sMaximum bit rate : 10 000 kb/sWidth : 768 pixelsHeight : 432 pixelsDisplay aspect ratio : 16:9Frame rate mode : ConstantFrame rate : 23.976 (24000/1001) FPSColor space : YUVChroma subsampling : 4:2:0Bit depth : 8 bitsScan type : ProgressiveBits/(Pixel*Frame) : 0.295Stream size : 1 001 MiB (86%)AudioID : 2Format : AC-3Format/Info : Audio Coding 3Mode extension : CM (complete main)Format settings, Endianness : BigCodec ID : A_AC3Duration : 59 min 40 sBit rate mode : ConstantBit rate : 384 kb/sChannel(s) : 6 channelsChannel positions : Front: L C R, Side: L R, LFESampling rate : 48.0 kHzFrame rate : 31.250 FPS (1536 spf)Bit depth : 16 bitsCompression mode : LossyStream size : 164 MiB (14%)Language : EnglishDefault : YesForced : No
    Code:
    Note: Archive was done with RAR5 Method, updating to latest version of WinRAR is required.
    Last edited by Elite; 11-15-2016 at 12:31 PM. Reason: use proper cover
    Reply With Quote Reply With Quote
    Send PM  




Similar Threads

  1. [RG] The Walking Dead S07E04 720p WEB-DL DD5 1 H 264-Cyphanix
    By PoisonIvy in forum 720p & 1080p TV Shows & Documentaries
    Replies: 0
    Last Post: 11-15-2016, 03:14 AM
  2. [MULTI] The Walking Dead S07E04 1080p WEB-DL DD5.1 H.264-Cyphanix
    By Shadow_Whisper in forum 720p & 1080p TV Shows & Documentaries
    Replies: 0
    Last Post: 11-14-2016, 10:16 PM
  3. [MULTI] The Walking Dead S07E04 WEB DL XviD FUM
    By RobertoWarez in forum 720p & 1080p TV Shows & Documentaries
    Replies: 0
    Last Post: 11-14-2016, 10:20 AM
  4. [MULTI] The Walking Dead S07E04 1080p WEB DL x264 FUM
    By RobertoWarez in forum 720p & 1080p TV Shows & Documentaries
    Replies: 0
    Last Post: 11-14-2016, 09:10 AM
  5. [MULTI] The Walking Dead S07E04 720p AVS | FLEET | AFG
    By RobertoWarez in forum 720p & 1080p TV Shows & Documentaries
    Replies: 0
    Last Post: 11-14-2016, 05:05 AM

Tags for this Thread

Bookmarks

Posting Permissions

  • You may not post new threads
  • You may not post replies
  • You may not post attachments
  • You may not edit your posts
  •