Support M-HDdl
Results 1 to 2 of 2
  1. #1
    VIP
    This is Shadow_Whisper's Country Flag

    Shadow_Whisper's Avatar
    Join Date
    Apr 2014
    Posts
    4,274
    Total 'Thanks' Received by This User
    For This Post
    1

    Total
    170

    Ranks Showcase
    Total Ranks: 1

    Rep Power
    44

    MULTI Guardians of the Galaxy Vol 2 2017 720p BluRay x264-Shadow


    Genre:Action, Adventure, Sci-Fi |File Size:4.03GB|Real HD-720p-MKV|IMDB:7.9/10|Single+Multi links



    The Guardians must fight to keep their newfound family together as they unravel the mystery of Peter Quill's true parentage.


    Code:

    Guardians of the Galaxy Vol. 2 (2017)
    PG-13 | 2h 16min | Action, Adventure, Sci-Fi | 5 May 2017 (USA)
    Rank: 7.9/10 (229,876)




    Code:


    General
    Format : Matroska
    Format version : Version 4 / Version 2
    File size : 4.03 GiB
    Duration : 2 h 15 min
    Overall bit rate mode : Variable
    Overall bit rate : 4 253 kb/s
    Release Title : Guardians of the Galaxy Vol 2 2017 720p BluRay x264-Shadow
    Encoded date : UTC 2017-08-11 23:50:46


    Video
    Format : AVC
    Format/Info : Advanced Video Codec
    Format profile : High@L3
    Format settings, CABAC : Yes
    Format settings, ReFrames : 5 frames
    Codec ID : V_MPEG4/ISO/AVC
    Duration : 2 h 15 min
    Bit rate mode : Variable
    Bit rate : 3 612 kb/s
    Maximum bit rate : 10 000 kb/s
    Width : 1 280 pixels
    Height : 534 pixels
    Display aspect ratio : 2.40:1
    Frame rate mode : Constant
    Frame rate : 23.976 (24000/1001) FPS
    Stream size : 3.42 GiB (85%)


    Audio
    Format : AC-3
    Format/Info : Audio Coding 3
    Format settings, Endianness : Big
    Codec ID : A_AC3
    Duration : 2 h 15 min
    Bit rate mode : Constant
    Bit rate : 640 kb/s
    Channel(s) : 6 channels
    Channel positions : Front: L C R, Side: L R, LFE
    Sampling rate : 48.0 kHz
    Bit depth : 16 bits
    Stream size : 622 MiB (15%)
    Language : English
    Service kind : Complete Main
    Default : Yes


    Text
    ID : 3
    Format : UTF-8
    Codec ID : S_TEXT/UTF8
    Codec ID/Info : UTF-8 Plain Text
    Duration : 2 h 14 min
    Bit rate : 48 b/s
    Count of elements : 1622
    Stream size : 47.6 KiB (0%)
    Language : English
    Default : Yes
    Forced : No









    Code:


    You must either reply or click 'Thank You' to see the hidden information contained here.
    You do not have sufficient rights to see the hidden data contained here.


    Note: Archive was done with RAR5 Method, updating to latest version of WinRAR is required.
    Reply With Quote Reply With Quote
    Send PM  

  2. Who Said Thanks:

    kenleary (08-28-2017)



  • #2
    Donator
    This is kenleary's Country Flag

    kenleary's Avatar
    Join Date
    Jan 2013
    Posts
    287
    Total 'Thanks' Received by This User
    For This Post
    0

    Total
    5
    Rep Power
    5
    Thanks...........
    Reply With Quote Reply With Quote
    Send PM  


  • Similar Threads

    1. [MULTI] Guardians Of The Galaxy Vol 2 (2017) [HK] [3D] BluRay - TTG
      By BollyCorner in forum 3D Full BD or HDDVD Movies
      Replies: 0
      Last Post: 08-23-2017, 07:40 AM
    2. [MULTI] Guardians Of The Galaxy Vol 2 2017 720p WEB-DL DD5 1 H264-EVO
      By BollyCorner in forum 720p Movies
      Replies: 0
      Last Post: 08-07-2017, 10:26 PM
    3. [FF] Guardians of the Galaxy Vol 2 2017 720p WEB-DL H264 AC3-EVO
      By VEVERELCOM in forum 720p Movies
      Replies: 0
      Last Post: 08-07-2017, 08:46 PM
    4. [MULTI] Guardians of the Galaxy Vol 2 2017 720p WEB-DL H264 AC3-EVO
      By luofen in forum 720p Movies
      Replies: 0
      Last Post: 08-07-2017, 06:41 PM
    5. [MULTI] Guardians of the Galaxy Vol.2 2017 720p WEB-DL H264 AC3-EVO
      By bestrun in forum 720p Movies
      Replies: 0
      Last Post: 08-07-2017, 04:19 PM

    Tags for this Thread

    Bookmarks

    Posting Permissions

    • You may not post new threads
    • You may not post replies
    • You may not post attachments
    • You may not edit your posts
    •