************************************************** **********
Le Week-End (2013) 1080p BluRay x264 AN0NYM0US
File Size: 6.56 GiB

************************************************** **********



Title: Le Week-End
Year: 2013
Genre: Comedy, Drama
Rating: 6.6 (534 votes)
Runtime: 93 min
Director: Roger Michell
Cast: Jeff Goldblum, Lindsay Duncan, Jim Broadbent, Olly Alexander
Plot:
Code:

INFO:

General
Complete name : ams-le.week-end-1080p.mkv
Format : Matroska
Format version : Version 2
File size : 6.56 GiB
Duration : 1h 33mn
Overall bit rate : 10.1 Mbps
Writing application : mkvmerge v4.1.1 ('Bouncin' Back') built on Jul 3 2010 22:54:08
Writing library : libebml v1.0.0 + libmatroska v1.0

Video
ID : 1
Format : AVC
Format/Info : Advanced Video Codec
Format profile : High@L4.0
Format settings, CABAC : Yes
Format settings, ReFrames : 5 frames
Codec ID : V_MPEG4/ISO/AVC
Duration : 1h 33mn
Bit rate : 8 575 Kbps
Width : 1 920 pixels
Height : 816 pixels
Display aspect ratio : 2.35:1
Frame rate mode : Constant
Frame rate : 24.000 fps
Color space : YUV
Chroma subsampling : 4:2:0
Bit depth : 8 bits
Scan type : Progressive
Bits/(Pixel*Frame) : 0.228
Stream size : 5.45 GiB (83%)
Writing library : x264 core 140 r2377 1ca7bb9
Language : English
Default : Yes
Forced : No

Audio
ID : 2
Format : DTS
Format/Info : Digital Theater Systems
Mode : 16
Format settings, Endianness : Big
Codec ID : A_DTS
Duration : 1h 33mn
Bit rate mode : Constant
Bit rate : 1 509 Kbps
Channel count : 6 channels
Channel positions : Front: L C R, Side: L R, LFE
Sampling rate : 48.0 KHz
Bit depth : 24 bits
Compression mode : Lossy
Stream size : 1 005 MiB (15%)
Title : DTS 1509kbps
Language : English
Default : Yes
Forced : No
iMDB:
Code:
Movie Trailer:
Code:







SINGLE EXTRACTION | NO PASSWORD | INTERCHANGEABLE LINK:

Code:

I HAVE BACKUP, DONT WORRY ABOUT DEAD LINKS, PLEASE SEND ME PM, AND I WILL REUP ANY LINK