Results 1 to 1 of 1
  1. #1
    Banned
    This is semkaada's Country Flag

    semkaada's Avatar
    Join Date
    Feb 2014
    Posts
    271
    Total 'Thanks' Received by This User
    For This Post
    0

    Total
    9
    Rep Power
    0

    Home Alone 2 Lost In New York 1992 1080p BluRay x264-CLASSiC


    Home Alone 2: Lost in New York (1992)
    Genre: Adventure | Comedy | Crime
    Directed By: Chris Columbus
    Cast: Macaulay Culkin, Joe Pesci, Daniel Stern
    MPAA Rate: PG
    Country: USA
    Original Language: English, French
    Storyline: One year after Kevin was left home alone and had to defeat a pair of bumbling burglars, he accidentally finds himself in New York City, and the same criminals are not far behind.

    IMDb Rate6.4/10130,631 votes
    IMDB:

    Format : Matroska
    Format version : Version 2
    File size : 8.74 GiB
    Duration : 2h 0mn
    Overall bit rate : 10.4 Mbps
    Encoded date : UTC 2009-11-25 11:22:54
    Writing application : mkvmerge v2.9.8 ('C'est le bon') built on Aug 13 2009 12:49:06
    Writing library : libebml v0.7.7 + libmatroska v0.8.1

    Video
    ID : 1
    Format : AVC
    Format/Info : Advanced Video Codec
    Format profile : High@L4.1
    Format settings, CABAC : Yes
    Format settings, ReFrames : 4 frames
    Codec ID : V_MPEG4/ISO/AVC
    Duration : 2h 0mn
    Bit rate : 8 921 Kbps
    Width : 1 920 pixels
    Height : 1 040 pixels
    Display aspect ratio : 1.85:1
    Frame rate mode : Constant
    Frame rate : 23.976 fps
    Color space : YUV
    Chroma subsampling : 4:2:0
    Bit depth : 8 bits
    Scan type : Progressive
    Bits/(Pixel*Frame) : 0.186
    Stream size : 7.31 GiB (84%)
    Writing library : x264 core 79 r1347 5ddd61b
    Encoding settings : cabac=1 / ref=4 / deblock=1:0:0 / analyse=0x3:0x133 / me=umh / subme=9 / psy=1 / psy_rd=1.0:0.0 / mixed_ref=1 / me_range=16 / chroma_me=1 / trellis=1 / 8x8dct=1 / cqm=0 / deadzone=21,11 / chroma_qp_offset=-2 / threads=6 / nr=0 / decimate=1 / mbaff=0 / constrained_intra=0 / bframes=3 / b_pyramid=0 / b_adapt=1 / b_bias=0 / direct=1 / wpredb=1 / wpredp=2 / keyint=250 / keyint_min=25 / scenecut=40 / rc_lookahead=40 / rc=2pass / mbtree=1 / bitrate=8921 / ratetol=1.0 / qcomp=0.60 / qpmin=10 / qpmax=51 / qpstep=4 / cplxblur=20.0 / qblur=0.5 / ip_ratio=1.40 / aq=1:1.00
    Language : English
    Default : No
    Forced : No

    Audio
    ID : 2
    Format : DTS
    Format/Info : Digital Theater Systems
    Mode : 16
    Format settings, Endianness : Big
    Codec ID : A_DTS
    Duration : 2h 0mn
    Bit rate mode : Constant
    Bit rate : 1 509 Kbps
    Channel count : 6 channels
    Channel positions : Front: L C R, Side: L R, LFE
    Sampling rate : 48.0 KHz
    Bit depth : 24 bits
    Compression mode : Lossy
    Stream size : 1.27 GiB (14%)
    Language : English
    Default : Yes
    Forced : No

    Text #1
    ID : 3
    Format : UTF-8
    Codec ID : S_TEXT/UTF8
    Codec ID/Info : UTF-8 Plain Text
    Language : English
    Default : Yes
    Forced : No

    Text #2
    ID : 4
    Format : UTF-8
    Codec ID : S_TEXT/UTF8
    Codec ID/Info : UTF-8 Plain Text
    Language : Danish
    Default : No
    Forced : No

    Text #3
    ID : 5
    Format : UTF-8
    Codec ID : S_TEXT/UTF8
    Codec ID/Info : UTF-8 Plain Text
    Language : Finnish
    Default : No
    Forced : No

    Text #4
    ID : 6
    Format : UTF-8
    Codec ID : S_TEXT/UTF8
    Codec ID/Info : UTF-8 Plain Text
    Language : Norwegian
    Default : No
    Forced : No

    Text #5
    ID : 7
    Format : UTF-8
    Codec ID : S_TEXT/UTF8
    Codec ID/Info : UTF-8 Plain Text
    Language : Swedish
    Default : No
    Forced : No

    Download
    Code:
    Last edited by semkaada; 02-11-2014 at 07:09 PM.
    Reply With Quote Reply With Quote
    Send PM  




Similar Threads

  1. [MULTI] Home Alone 2: Lost in New York (1992) Bluray
    By m-hddl in forum Graveyard
    Replies: 22
    Last Post: 12-18-2014, 08:07 PM
  2. [MULTI] Home Alone 2 Lost in New York (1992) 1080p BluRay x264-CLASSiC
    By heshamsheva in forum Graveyard
    Replies: 0
    Last Post: 12-24-2013, 12:16 PM
  3. Replies: 0
    Last Post: 06-16-2013, 10:41 AM
  4. Replies: 0
    Last Post: 02-14-2013, 12:49 PM
  5. [MULTI] Home Alone 2: Lost in New York 1992 720p BluRay DTS x264-DON
    By LoVe4EvEr in forum Graveyard
    Replies: 0
    Last Post: 01-10-2013, 10:35 PM

Tags for this Thread

Bookmarks

Posting Permissions

  • You may not post new threads
  • You may not post replies
  • You may not post attachments
  • You may not edit your posts
  •