=
Crimson Winter (2013) 1080p BluRay x264 RUSTED
File Size: 7.65 GiB

=




General
Complete name : crimson.winter.2013.1080p.bluray.x264-rusted.mkv
Format : Matroska
Format version : Version 4 / Version 2
File size : 7.65 GiB
Duration : 1h 46mn
Overall bit rate : 10.3 Mbps
Encoded date : UTC 2014-02-09 11:34:04
Writing application : mkvmerge v6.7.0 ('Back to the Ground') 64bit built on Jan 8 2014 15:10:52
Writing library : libebml v1.3.0 + libmatroska v1.4.1

Video
ID : 1
Format : AVC
Format/Info : Advanced Video Codec
Format profile : High@L4.1
Format settings, CABAC : Yes
Format settings, ReFrames : 5 frames
Codec ID : V_MPEG4/ISO/AVC
Duration : 1h 46mn
Bit rate : 8 789 Kbps
Width : 1 920 pixels
Height : 824 pixels
Display aspect ratio : 2.35:1
Frame rate mode : Constant
Frame rate : 23.976 fps
Color space : YUV
Chroma subsampling : 4:2:0
Bit depth : 8 bits
Scan type : Progressive
Bits/(Pixel*Frame) : 0.232
Stream size : 6.38 GiB (83%)
Writing library : x264 core 140 r2377 1ca7bb9
Default : Yes
Forced : No

Audio
ID : 2
Format : DTS
Format/Info : Digital Theater Systems
Mode : 16
Format settings, Endianness : Big
Codec ID : A_DTS
Duration : 1h 46mn
Bit rate mode : Constant
Bit rate : 1 509 Kbps
Channel count : 6 channels
Channel positions : Front: L C R, Side: L R, LFE
Sampling rate : 48.0 KHz
Bit depth : 16 bits
Compression mode : Lossy
Stream size : 1.12 GiB (15%)
Language : English
Default : Yes
Forced : No
Code:








SINGLE EXTRACTION | NO PASSWORD | INTERCHANGEABLE LINK:

Code:
DOWNLOAD SINGL LINKS:
Code:
I HAVE BACKUP, DONT WORRY ABOUT DEAD LINKS, PLEASE SEND ME PM, AND I WILL REUP ANY LINK