Monsters Inc (2001) 1080p BluRay - CiNEFiLE






General Complete name : Monsters.Inc.2001.1080p.BluRay.x264-CiNEFiLE.mkv Format : Matroska Format version : Version 2 File size : 6.56 GiB Duration : 1h 32mn Overall bit rate : 10.2 Mbps Encoded date : UTC 2009-05-21 13:03:41 Writing application : mkvmerge v2.8.0 ('The Tree') built on May 9 2009 18:02:06 Writing library : libebml v0.7.7 + libmatroska v0.8.1 Video ID : 1 Format : AVC Format/Info : Advanced Video Codec Format profile : High@L4.0 Format settings, CABAC : Yes Format settings, ReFrames : 4 frames Codec ID : V_MPEG4/ISO/AVC Duration : 1h 32mn Bit rate : 8 667 Kbps Width : 1 920 pixels Height : 1 040 pixels Display aspect ratio : 16:9 Frame rate : 23.976 fps Color space : YUV Chroma subsampling : 4:2:0 Bit depth : 8 bits Scan type : Progressive Bits/(Pixel*Frame) : 0.181 Stream size : 5.46 GiB (83%) Writing library : x264 core 67 r1153 7b6ce6a Language : English Default : Yes Forced : Yes Audio ID : 2 Format : DTS Format/Info : Digital Theater Systems Format profile : ES Codec ID : A_DTS Duration : 1h 32mn Bit rate mode : Constant Bit rate : 1 510 Kbps Channel(s) : 6 channels Channel positions : Front: L C R, Side: L R, LFE Sampling rate : 48.0 KHz Bit depth : 24 bits Compression mode : Lossy Stream size : 996 MiB (15%) Language : English Default : Yes Forced : Yes Text ID : 3 Format : UTF-8 Codec ID : S_TEXT/UTF8 Codec ID/Info : UTF-8 Plain Text Language : English Default : Yes Forced : No

imdb
Code:
subtitles
Code:
download
Code: