James And The Giant Peach (1996) 1080p BluRay - BRMP






General Complete name : james.and.the.giant.peach.1996.1080p.bluray.x264-brmp.mkv Format : Matroska Format version : Version 2 File size : 7.94 GiB Duration : 1h 19mn Overall bit rate : 14.3 Mbps Encoded date : UTC 2010-08-05 06:25:53 Writing application : mkvmerge v4.1.1 ('Bouncin' Back') built on Jul 3 2010 22:54:08 Writing library : libebml v1.0.0 + libmatroska v1.0.0 Video ID : 1 Format : AVC Format/Info : Advanced Video Codec Format profile : High@L4.1 Format settings, CABAC : Yes Format settings, ReFrames : 4 frames Codec ID : V_MPEG4/ISO/AVC Duration : 1h 19mn Bit rate : 12.8 Mbps Width : 1 808 pixels Height : 1 080 pixels Display aspect ratio : 1.674 Frame rate : 23.976 fps Color space : YUV Chroma subsampling : 4:2:0 Bit depth : 8 bits Scan type : Progressive Bits/(Pixel*Frame) : 0.274 Stream size : 6.95 GiB (87%) Writing library : x264 core 104 r1677 19df41a Language : English Default : Yes Forced : No Audio ID : 2 Format : DTS Format/Info : Digital Theater Systems Muxing mode : Header stripping Codec ID : A_DTS Duration : 1h 19mn Bit rate mode : Constant Bit rate : 1 510 Kbps Channel(s) : 6 channels Channel positions : Front: L C R, Side: L R, LFE Sampling rate : 48.0 KHz Bit depth : 24 bits Compression mode : Lossy Stream size : 858 MiB (11%) Language : English Default : Yes Forced : No Text ID : 3 Format : UTF-8 Codec ID : S_TEXT/UTF8 Codec ID/Info : UTF-8 Plain Text Title : English Language : English Default : Yes Forced : No

imdb
Code:
subtitles
Code:
download
Code: