Bolt (2008) 1080p BluRay - 1920






General Complete name : files/1920-bolt.mkv Format : Matroska Format version : Version 1 File size : 6.54 GiB Duration : 1h 36mn Overall bit rate : 9 720 Kbps Encoded date : UTC 2009-03-05 09:39:47 Writing application : mkvmerge v2.4.2 ('Oh My God') built on Jan 18 2009 17:30:28 Writing library : libebml v0.7.7 + libmatroska v0.8.1 Video ID : 1 Format : AVC Format/Info : Advanced Video Codec Format profile : High@L4.1 Format settings, CABAC : Yes Format settings, ReFrames : 4 frames Codec ID : V_MPEG4/ISO/AVC Duration : 1h 36mn Bit rate : 8 207 Kbps Width : 1 920 pixels Height : 1 080 pixels Display aspect ratio : 16:9 Frame rate : 23.976 fps Color space : YUV Chroma subsampling : 4:2:0 Bit depth : 8 bits Scan type : Progressive Bits/(Pixel*Frame) : 0.165 Stream size : 5.40 GiB (82%) Writing library : x264 core 67 r1120 8544346 Language : English Default : Yes Forced : No Audio ID : 2 Format : DTS Format/Info : Digital Theater Systems Format profile : ES Codec ID : A_DTS Duration : 1h 36mn Bit rate mode : Constant Bit rate : 1 510 Kbps Channel(s) : 6 channels Channel positions : Front: L C R, Side: L R, LFE Sampling rate : 48.0 KHz Bit depth : 24 bits Compression mode : Lossy Stream size : 1.02 GiB (16%) Title : DTS Language : English Default : Yes Forced : No

imdb
Code:
subtitles
Code:
download
Code: