Ratatouille (2007) 1080p BluRay - hV






General Complete name : files/Ratatouille.2007.1080p.BluRay.DTS.x264.REPACK-hV.mkv Format : Matroska Format version : Version 1 File size : 6.56 GiB Duration : 1h 50mn Overall bit rate : 8 495 Kbps Encoded date : UTC 2007-11-27 23:03:19 Writing application : mkvmerge v2.0.2 ('You're My Flame') built on Feb 21 2007 23:40:55 Writing library : libebml v0.7.7 + libmatroska v0.8.1 Video ID : 3 Format : AVC Format/Info : Advanced Video Codec Format profile : High@L5.1 Format settings, CABAC : Yes Format settings, ReFrames : 8 frames Format settings, GOP : N=1 Codec ID : V_MPEG4/ISO/AVC Duration : 1h 50mn Bit rate : 6 984 Kbps Width : 1 920 pixels Height : 800 pixels Display aspect ratio : 2.40:1 Frame rate : 23.976 fps Color space : YUV Chroma subsampling : 4:2:0 Bit depth : 8 bits Scan type : Progressive Bits/(Pixel*Frame) : 0.190 Stream size : 5.26 GiB (80%) Writing library : x264 core 56 svn-682C Default : Yes Forced : No Audio ID : 2 Format : DTS Format/Info : Digital Theater Systems Codec ID : A_DTS Duration : 1h 50mn Bit rate mode : Constant Bit rate : 1 510 Kbps Channel(s) : 6 channels Channel positions : Front: L C R, Side: L R, LFE Sampling rate : 48.0 KHz Bit depth : 24 bits Compression mode : Lossy Stream size : 1.17 GiB (18%) Language : English Default : Yes Forced : No Text ID : 1 Format : UTF-8 Codec ID : S_TEXT/UTF8 Codec ID/Info : UTF-8 Plain Text Language : English Default : No Forced : No

imdb
Code:
subtitles
Code:
download
Code: