Toy Story 3 (2010) 1080p BluRay - ETHOS




General Complete name : files/ts3-ethos.mkv Format : Matroska Format version : Version 2 File size : 7.95 GiB Duration : 1h 42mn Overall bit rate : 11.1 Mbps Encoded date : UTC 2010-10-14 06:58:10 Writing application : mkvmerge v4.3.0 ('Escape from the Island') built on Sep 5 2010 10:30:51 Writing library : libebml v1.0.0 + libmatroska v1.0.0 Video ID : 1 Format : AVC Format/Info : Advanced Video Codec Format profile : High@L4.1 Format settings, CABAC : Yes Format settings, ReFrames : 3 frames Muxing mode : Header stripping Codec ID : V_MPEG4/ISO/AVC Duration : 1h 42mn Bit rate : 9 586 Kbps Width : 1 920 pixels Height : 1 080 pixels Display aspect ratio : 16:9 Frame rate : 23.976 fps Color space : YUV Chroma subsampling : 4:2:0 Bit depth : 8 bits Scan type : Progressive Bits/(Pixel*Frame) : 0.193 Stream size : 6.71 GiB (84%) Writing library : x264 core 107 r1745 4785e8e Language : English Default : Yes Forced : No Audio ID : 2 Format : DTS Format/Info : Digital Theater Systems Format profile : ES Muxing mode : Header stripping Codec ID : A_DTS Duration : 1h 42mn Bit rate mode : Constant Bit rate : 1 510 Kbps Channel(s) : 6 channels Channel positions : Front: L C R, Side: L R, LFE Sampling rate : 48.0 KHz Bit depth : 24 bits Compression mode : Lossy Stream size : 1.08 GiB (14%) Default : Yes Forced : No

imdb
Code:
subtitles
Code:
download
Code: