Toy Story 2 (1999) 1080p BluRay - BestHD




General Format : Matroska Format version : Version 1 File size : 6.56 GiB Duration : 1h 32mn Overall bit rate : 10.2 Mbps Writing application : x264.exe Writing library : mkv2rls v1.2 (date: 2010 febr 17) Video ID : 1 Format : AVC Format/Info : Advanced Video Codec Format profile : High@L4.1 Format settings, CABAC : Yes Format settings, ReFrames : 4 frames Codec ID : V_MPEG4/ISO/AVC Duration : 1h 32mn Bit rate : 8 650 Kbps Width : 1 920 pixels Height : 1 080 pixels Display aspect ratio : 16:9 Frame rate : 23.976 fps Color space : YUV Chroma subsampling : 4:2:0 Bit depth : 8 bits Scan type : Progressive Bits/(Pixel*Frame) : 0.174 Stream size : 5.45 GiB (83%) Writing library : x264 core 88 r1462 7fcffde Language : English Default : Yes Forced : No Audio ID : 2 Format : DTS Format/Info : Digital Theater Systems Format profile : ES Codec ID : A_DTS Duration : 1h 32mn Bit rate mode : Constant Bit rate : 1 510 Kbps Channel(s) : 6 channels Channel positions : Front: L C R, Side: L R, LFE Sampling rate : 48.0 KHz Bit depth : 24 bits Compression mode : Lossy Stream size : 998 MiB (15%) Title : English DTS 1509kbps Language : English Default : Yes Forced : No Text ID : 3 Format : UTF-8 Codec ID : S_TEXT/UTF8 Codec ID/Info : UTF-8 Plain Text Title : English Language : English Default : No Forced : No

imdb
Code:
subtitles
Code:
download
Code: