Tangled (2010) 1080p BluRay - CiNEFiLE






General Complete name : files/Tangled.2010.1080p.BluRay.x264-CiNEFiLE.mkv Format : Matroska Format version : Version 2 File size : 7.65 GiB Duration : 1h 40mn Overall bit rate : 10.9 Mbps Encoded date : UTC 2011-03-20 11:46:45 Writing application : mkvmerge v4.6.0 ('Still Crazy After All These Years') built on Mar 10 2011 02:50:32 Writing library : libebml v1.2.0 + libmatroska v1.1.0 Video ID : 1 Format : AVC Format/Info : Advanced Video Codec Format profile : High@L4.1 Format settings, CABAC : Yes Format settings, ReFrames : 4 frames Codec ID : V_MPEG4/ISO/AVC Duration : 1h 40mn Bit rate : 9 408 Kbps Width : 1 920 pixels Height : 1 080 pixels Display aspect ratio : 16:9 Frame rate : 23.976 fps Color space : YUV Chroma subsampling : 4:2:0 Bit depth : 8 bits Scan type : Progressive Bits/(Pixel*Frame) : 0.189 Stream size : 6.44 GiB (84%) Writing library : x264 core 114 r1913 5fd3dce Language : English Default : Yes Forced : No Audio ID : 2 Format : DTS Format/Info : Digital Theater Systems Codec ID : A_DTS Duration : 1h 40mn Bit rate mode : Constant Bit rate : 1 510 Kbps Channel(s) : 6 channels Channel positions : Front: L C R, Side: L R, LFE Sampling rate : 48.0 KHz Bit depth : 24 bits Compression mode : Lossy Stream size : 1.06 GiB (14%) Language : English Default : Yes Forced : No Text ID : 3 Format : UTF-8 Codec ID : S_TEXT/UTF8 Codec ID/Info : UTF-8 Plain Text Language : English Default : No Forced : No

imdb
Code:
subtitles
Code:
download
Code: