A Bugs Life (1998) 1080p BluRay - Japhson





General
Complete name : files/japhson-anl1080p-sample.mkv
Format : Matroska
Format version : Version 1
File size : 100 MiB
Duration : 1mn 53s
Overall bit rate : 7 399 Kbps
Encoded date : UTC 2009-05-08 08:14:22
Writing application : mkvmerge v2.0.2 ('You're My Flame') built on Feb 21 2007 23:40:55
Writing library : libebml v0.7.7 + libmatroska v0.8.1

Video
ID : 1
Format : AVC
Format/Info : Advanced Video Codec
Format profile : High@L4.1
Format settings, CABAC : Yes
Format settings, ReFrames : 5 frames
Codec ID : V_MPEG4/ISO/AVC
Duration : 1mn 53s
Bit rate : 5 742 Kbps
Width : 1 920 pixels
Height : 816 pixels
Display aspect ratio : 2.35:1
Frame rate : 23.976 fps
Color space : YUV
Chroma subsampling : 4:2:0
Bit depth : 8 bits
Scan type : Progressive
Bits/(Pixel*Frame) : 0.153
Stream size : 77.7 MiB (78%)
Language : English
Default : Yes
Forced : No

Audio
ID : 2
Format : DTS
Format/Info : Digital Theater Systems
Format profile : ES
Codec ID : A_DTS
Duration : 1mn 53s
Bit rate mode : Constant
Bit rate : 1 510 Kbps
Channel(s) : 6 channels
Channel positions : Front: L C R, Side: L R, LFE
Sampling rate : 48.0 KHz
Bit depth : 24 bits
Compression mode : Lossy
Delay relative to video : 43ms
Stream size : 20.4 MiB (20%)
Language : English
Default : Yes
Forced : No

imdb
Code:
subtitles
Code:
download
Code: