Beauty And The Beast (1991) 1080p BluRay - LCHD





General
Unique ID : 208908303476642711866740539452740762368 (0x9D2A469638671E93A384B2E5DF6E7B00)
Complete name : files/lchd-batb-1080p.mkv
Format : Matroska
Format version : Version 2
File size : 4.37 GiB
Duration : 1h 31mn
Overall bit rate : 6 818 Kbps
Encoded date : UTC 2010-09-24 23:52:10
Writing application : mkvmerge v3.3.0 ('Language') built on Mar 24 2010 14:59:24
Writing library : libebml v0.8.0 + libmatroska v0.9.0

Video
ID : 1
Format : AVC
Format/Info : Advanced Video Codec
Format profile : High@L4.1
Format settings, CABAC : Yes
Format settings, ReFrames : 4 frames
Codec ID : V_MPEG4/ISO/AVC
Duration : 1h 31mn
Bit rate : 5 307 Kbps
Width : 1 920 pixels
Height : 1 080 pixels
Display aspect ratio : 16:9
Frame rate : 23.976 fps
Color space : YUV
Chroma subsampling : 4:2:0
Bit depth : 8 bits
Scan type : Progressive
Bits/(Pixel*Frame) : 0.107
Stream size : 3.31 GiB (76%)
Writing library : x264 core 104 r1713 c276662
Language : English
Default : Yes
Forced : Yes

Audio
ID : 2
Format : DTS
Format/Info : Digital Theater Systems
Codec ID : A_DTS
Duration : 1h 31mn
Bit rate mode : Constant
Bit rate : 1 510 Kbps
Channel(s) : 6 channels
Channel positions : Front: L C R, Side: L R, LFE
Sampling rate : 48.0 KHz
Bit depth : 24 bits
Compression mode : Lossy
Stream size : 991 MiB (22%)
Language : English
Default : Yes
Forced : Yes

Text
ID : 3
Format : UTF-8
Codec ID : S_TEXT/UTF8
Codec ID/Info : UTF-8 Plain Text
Language : English
Default : Yes
Forced : No


imdb
Code:
subtitles
Code:
download
Code: