Cars (2006) 1080p BluRay - CiNEFiLE







General
Complete name : files/Cars.2006.1080p.BluRay.x264-CiNEFiLE.mkv
Format : Matroska
Format version : Version 1
File size : 7.95 GiB
Duration : 1h 56mn
Overall bit rate : 9 756 Kbps
Encoded date : UTC 2008-06-01 09:25:50
Writing application : mkvmerge v2.2.0 ('Turn It On Again') built on Mar 4 2008 12:58:26
Writing library : libebml v0.7.7 + libmatroska v0.8.1

Video
ID : 1
Format : AVC
Format/Info : Advanced Video Codec
Format profile : High@L5.1
Format settings, CABAC : Yes
Format settings, ReFrames : 5 frames
Format settings, GOP : N=1
Codec ID : V_MPEG4/ISO/AVC
Duration : 1h 56mn
Bit rate : 9 114 Kbps
Width : 1 920 pixels
Height : 800 pixels
Display aspect ratio : 2.40:1
Frame rate : 23.976 fps
Color space : YUV
Chroma subsampling : 4:2:0
Bit depth : 8 bits
Scan type : Progressive
Bits/(Pixel*Frame) : 0.247
Stream size : 7.27 GiB (91%)
Writing library : x264 core 59 r859 ce13bb6
Language : English
Default : Yes
Forced : No

Audio
ID : 2
Format : AC-3
Format/Info : Audio Coding 3
Mode extension : CM (complete main)
Codec ID : A_AC3
Duration : 1h 56mn
Bit rate mode : Constant
Bit rate : 640 Kbps
Channel(s) : 6 channels
Channel positions : Front: L C R, Side: L R, LFE
Sampling rate : 48.0 KHz
Bit depth : 16 bits
Compression mode : Lossy
Stream size : 534 MiB (7%)
Default : Yes
Forced : No


imdb
Code:
subtitles
Code:
download
Code: