Fantasia 2000 (1999) 1080p BluRay - THUGLiNE





General
Format : Matroska
Format version : Version 2
File size : 4.37 GiB
Duration : 1h 14mn
Overall bit rate : 8 398 Kbps
Encoded date : UTC 2010-10-24 10:08:55
Writing application : mkvmerge v4.0.0 ('The Stars were mine') gebaut am Jun 6 2010 16:18:42
Writing library : libebml v1.0.0 + libmatroska v1.0.0

Video
ID : 1
Format : AVC
Format/Info : Advanced Video Codec
Format profile : High@L4.1
Format settings, CABAC : Yes
Format settings, ReFrames : 4 frames
Codec ID : V_MPEG4/ISO/AVC
Duration : 1h 14mn
Bit rate : 6 888 Kbps
Width : 1 920 pixels
Height : 1 080 pixels
Display aspect ratio : 16:9
Frame rate : 23.976 fps
Color space : YUV
Chroma subsampling : 4:2:0
Bit depth : 8 bits
Scan type : Progressive
Bits/(Pixel*Frame) : 0.139
Stream size : 3.50 GiB (80%)
Writing library : x264 core 107 r1745 4785e8e
ip_ratio=1.40 / aq=1:1.00
Language : English
Default : No
Forced : No

Audio
ID : 2
Format : DTS
Format/Info : Digital Theater Systems
Codec ID : A_DTS
Duration : 1h 14mn
Bit rate mode : Constant
Bit rate : 1 510 Kbps
Channel(s) : 6 channels
Channel positions : Front: L C R, Side: L R, LFE
Sampling rate : 48.0 KHz
Bit depth : 24 bits
Compression mode : Lossy
Stream size : 805 MiB (18%)
Language : English
Default : Yes
Forced : No


subtitles
Code:
imdb
Code:
download
Code: