Meet The Robinsons (2007) 1080p BluRay - hV






General
Complete name : files/Meet.The.Robinsons.2007.1080p.BluRay.DTS.x264-hV.mkv
Format : Matroska
Format version : Version 1
File size : 6.56 GiB
Duration : 1h 33mn
Overall bit rate : 10.0 Mbps
Encoded date : UTC 2007-11-26 22:25:33
Writing application : mkvmerge v2.0.2 ('You're My Flame') built on Feb 21 2007 23:40:55
Writing library : libebml v0.7.7 + libmatroska v0.8.1

Video
ID : 2
Format : AVC
Format/Info : Advanced Video Codec
Format profile : High@L5.1
Format settings, CABAC : Yes
Format settings, ReFrames : 8 frames
Codec ID : V_MPEG4/ISO/AVC
Duration : 1h 33mn
Bit rate : 8 514 Kbps
Width : 1 920 pixels
Height : 1 080 pixels
Display aspect ratio : 16:9
Frame rate : 23.976 fps
Color space : YUV
Chroma subsampling : 4:2:0
Bit depth : 8 bits
Scan type : Progressive
Bits/(Pixel*Frame) : 0.171
Stream size : 5.44 GiB (83%)
Writing library : x264 core 57 svn-699C
Language : English
Default : Yes
Forced : No

Audio
ID : 1
Format : DTS
Format/Info : Digital Theater Systems
Codec ID : A_DTS
Duration : 1h 33mn
Bit rate mode : Constant
Bit rate : 1 510 Kbps
Channel(s) : 6 channels
Channel positions : Front: L C R, Side: L R, LFE
Sampling rate : 48.0 KHz
Bit depth : 24 bits
Compression mode : Lossy
Stream size : 1 012 MiB (15%)
Language : English
Default : Yes
Forced : No


imdb
Code:
subtitles
Code:
download
Code: