.

Extraction.2015.1080p.WEB-DL.DD5.1.H264-RARBG


Title: Extraction
Genre: Thriller
Language/s: English
Video Stream:
Audio Stream: Dolby Digital 5.1
Video Codec: MPEG-4 H.264 / AVC
Hoster: Hugefiles.net, Uploaded.net, Openload.co [STREAM]
Size: 2809 MB
Parts: 10

A former CIA operative is kidnapped by a group of terrorists. When his son learns there is no plan for his father to be saved, he launches his own rescue operation.

nfo:

Spoiler: show
[nfo]Video
ID : 1
Format : AVC
Format/Info : Advanced Video Codec
Format profile : High@L4
Format settings, CABAC : Yes
Format settings, ReFrames : 5 frames
Codec ID : V_MPEG4/ISO/AVC
Duration : 1h 22mn
Bit rate : 4 268 Kbps
Width : 1 920 pixels
Height : 800 pixels
Display aspect ratio : 2.40:1
Frame rate mode : Constant
Frame rate : 23.976 fps
Color space : YUV
Chroma subsampling : 4:2:0
Bit depth : 8 bits
Scan type : Progressive
Bits/(Pixel*Frame) : 0.116
Stream size : 2.47 GiB (90%)
Title : Extraction.2015.1080p.WEB-DL.DD5.1.H264-RARBG
Language : English
Default : Yes
Forced : No
Color range : Limited
Color primaries : BT.709
Transfer characteristics : BT.709
Matrix coefficients : BT.709

Audio
ID : 2
Format : AC-3
Format/Info : Audio Coding 3
Mode extension : CM (complete main)
Format settings, Endianness : Big
Codec ID : A_AC3
Duration : 1h 22mn
Bit rate mode : Constant
Bit rate : 384 Kbps
Channel(s) : 6 channels
Channel positions : Front: L C R, Side: L R, LFE
Sampling rate : 48.0 KHz
Frame rate : 31.250 fps (1536 spf)
Compression mode : Lossy
Stream size : 227 MiB (8%)
Title : Extraction.2015.1080p.WEB-DL.DD5.1.H264-RARBG
Language : English
Default : Yes
Forced : No

Menu
00:00:00.000 : en:Opening Sequence
00:05:39.000 : en:Not Tonight Kid
00:10:35.000 : en:Get It Right
00:15:57.000 : en:This It?
00:22:35.000 : en:You Been Briefed?
00:26:40.000 : en:He's Good
00:32:40.000 : en:Prep An Asset
00:37:31.000 : en:I Know Who Can
00:42:34.000 : en:You're Both In
00:47:57.000 : en:I Like Your Hair
00:52:41.000 : en:Where Are We Going?
00:58:08.000 : en:Did You Follow Protocol?
01:03:42.000 : en:You're Killing Him
01:09:42.000 : en:Take A Step Back
01:14:24.000 : en:Let's Roll
01:19:09.000 : en:End Credits[/nfo]


Mirror: 1

Hugefiles.net

Mirror: 2

Uploaded.net

Mirror: 3

Openload.co [STREAM] [img][/img]
.