A Simple Plan (1998)


Details :

RATING : 7.5/10 from 47,828 Votes / Metascore: 82/100
Code:
Year : 1998

GENRE : Crime | Drama | Thriller

Director : Sam Raimi

Writer : Scott B. Smith (novel), Scott B. Smith (screenplay)

STARS : Bill Paxton, Bridget Fonda, Billy Bob Thornton, Brent Briscoe, Jack Walsh, Chelcie Ross, Becky Ann Baker, Gary Cole, Bob Davis, Peter Syvertsen, Tom Carey, John Paxton, Marie Mathay, Paul Magers, Joan Steffand

PLOT : When three blue collar acquaintances come across millions of dollars in lost cash they make a plan to keep their find from the authorities but find complications and mistrust weaving its way into their plan.
Code:
Country of Origin : UK

Languages : English

MPAA Rating : R

Release Quality : BRRIP

File Type : MP4

More Info :
Code:
Subtitles :
Code:
Samples :





720p CODY BRRIP Quality

Release Nfo :
General
Complete name : A Simple Plan
[1998]720p BRRip H264 AC3 - CODY.mp4
Format : MPEG-4
Format profile : Base Media
Codec ID : isom
File size : 2.25 GiB
Duration : 2h 1mn
Overall bit rate mode : Variable
Overall bit rate : 2 659 Kbps
Encoded date : UTC 2012-12-15 17:54:44
Video
ID : 1
Format : AVC
Format/Info : Advanced Video Codec
Format profile : High@L4.1
Format settings, CABAC : Yes
Format settings, ReFrames : 5 frames
Codec ID : avc1
Codec ID/Info : Advanced Video Coding
Duration : 2h 1mn
Bit rate mode : Variable
Bit rate : 2 210 Kbps
Maximum bit rate : 20.0 Mbps
Width : 1 280 pixels
Height : 720 pixels
Display aspect ratio : 16:9
Frame rate mode : Constant
Frame rate : 23.976 fps
Color space : YUV
Chroma subsampling : 4:2:0
Bit depth : 8 bits
Scan type : Progressive
Bits/(Pixel*Frame) : 0.100
Stream size : 1.87 GiB (83%)
Writing library : x264 core 125 r2208 d9d2288
Encoding settings : rc=2pass
Color primaries : Generic film
Audio
ID : 2
Format : AC-3
Format/Info : Audio Coding 3
Mode extension : CM (complete main)
Codec ID : ac-3
Duration : 2h 1mn
Bit rate mode : Constant
Bit rate : 448 Kbps
Channel(s) : 6 channels
Channel positions : Front: L C R, Side: L R, LFE
Sampling rate : 48.0 KHz
Bit depth : 16 bits
Compression mode : Lossy
Stream size : 388 MiB (17%)
Audio language : English
DOWNLOAD Links : [/color]
Code:
No Password