The Road to El Dorado (2000)


Details :

RATING : 6.8/10 from 46,212 Votes / Metascore: 51/100
Code:
Year : 2000

GENRE : Animation | Adventure | Comedy | Family | Romance

Director : Bibo Bergeron,Will Finn,Don Paul,David Silverman,Jeffrey Katzenberg

Writer : Terry Rossio (screenplay),Ted Elliott (screenplay),Karey Kirkpatrick (additional dialogue)

STARS : Kevin Kline, Kenneth Branagh, Rosie Perez, Armand Assante, Edward James Olmos, Jim Cummings, Frank Welker, Tobin Bell, Duncan Marjoribanks, Elijah Chiang, Cyrus Shaki-Khan, Elton John

PLOT : Two swindlers get their hands on a map to the fabled city of gold, El Dorado.
Code:
Country of Origin : USA

Languages : English

MPAA Rating : PG

Release Quality : BRRIP

File Type : MKV

More Info :
Code:
Subtitles :
Code:
Samples :




720p Ngupta93 BRRIP Quality

Release Nfo :
The.Road.to.El.Dorado.2000.m720p dual audio by ngupta93.mkv 880.78 Mb

Duration: 01:29:27.31, start: 0.000000, bitrate: 256 kb/s
Stream #0.0(eng): Video: h264 (High), yuv420p, 1280x720 [PAR 1:1 DAR 16:9], 23.98 fps, 23.98 tbr, 1k tbn, 47.95 tbc
Stream #0.1(eng): Audio: mp3, 32000 Hz, stereo, s16, 128 kb/s
Stream #0.2(hin): Audio: mp3, 32000 Hz, stereo, s16, 128 kb/s (default)
DOWNLOAD Links : [/color]
Code:
No Password