General[/b]
Format : Matroska
Format version : Version 4 / Version 2
File size : 3.00 GiB
Duration : 51mn 33s
Overall bit rate : 8 329 Kbps

Video
ID : 1
Format : AVC
Format/Info : Advanced Video Codec
Format profile : High@L4.1
Format settings, CABAC : Yes
Format settings, ReFrames : 4 frames
Codec ID : V_MPEG4/ISO/AVC
Duration : 51mn 33s
Bit rate : 7 683 Kbps
Width : 1 920 pixels
Height : 1 080 pixels
Display aspect ratio : 16:9
Frame rate mode : Constant
Frame rate : 59.880 fps
Color space : YUV
Chroma subsampling : 4:2:0
Bit depth : 8 bits
Scan type : Progressive
Bits/(Pixel*Frame) : 0.062
Stream size : 2.71 GiB (90%)
Title : Pasha@Hon3yHD

Audio
ID : 2
Format : AC-3
Format/Info : Audio Coding 3
Mode extension : CM (complete main)
Format settings, Endianness : Big
Codec ID : A_AC3
Duration : 51mn 33s
Bit rate mode : Constant
Bit rate : 640 Kbps
Channel(s) : 2 channels
Channel positions : Front: L R
Sampling rate : 48.0 KHz
Compression mode : Lossy
Delay relative to video : 28ms
Stream size : 236 MiB (8%)
Title : Pasha@Hon3yHD
Language : English
Default : Yes



















Please buy Fresh UL Premium from my links to Support Me.
SINGLE LINKS
Code:
SPLIT LINKS

Code:
Code:
Code: