Boychoir 2014 720p WEB-DL DD5 1 H264-RARBG





Video
ID : 1
Format : AVC
Format/Info : Advanced Video Codec
Format profile : Main@L3.1
Format settings, CABAC : No
Format settings, ReFrames : 2 frames
Codec ID : V_MPEG4/ISO/AVC
Duration : 1h 43mn
Bit rate : 3 945 Kbps
Width : 1 280 pixels
Height : 532 pixels
Display aspect ratio : 2.40:1
Frame rate mode : Constant
Frame rate : 24.000 fps
Color space : YUV
Chroma subsampling : 4:2:0
Bit depth : 8 bits
Scan type : Progressive
Bits/(Pixel*Frame) : 0.241
Stream size : 2.84 GiB (89%)
Title : Boychoir.2014.720p.WEB-DL.DD5.1.H264-RARBG
Language : English
Default : Yes
Forced : No
Color range : Limited
Color primaries : BT.709
Transfer characteristics : BT.709
Matrix coefficients : BT.709

Audio
ID : 2
Format : AC-3
Format/Info : Audio Coding 3
Mode extension : CM (complete main)
Format settings, Endianness : Big
Codec ID : A_AC3
Duration : 1h 43mn
Bit rate mode : Constant
Bit rate : 384 Kbps
Channel(s) : 6 channels
Channel positions : Front: L C R, Side: L R, LFE
Sampling rate : 48.0 KHz
Bit depth : 16 bits
Compression mode : Lossy
Stream size : 283 MiB (9%)
Title : Boychoir.2014.720p.WEB-DL.DD5.1.H264-RARBG
Language : English
Default : Yes
Forced : No

Menu
00:00:00.000 : en:Chapter 1
00:09:23.000 : en:Chapter 2
00:14:54.000 : en:Chapter 3
00:23:48.000 : en:Chapter 4
00:32:24.000 : en:Chapter 5
00:38:45.000 : en:Chapter 6
00:47:52.000 : en:Chapter 7
00:58:11.000 : en:Chapter 8
01:05:58.000 : en:Chapter 9
01:14:27.000 : en:Chapter 10
01:24:52.000 : en:Chapter 11
01:36:30.000 : en:Chapter 12





Boychoir.2014.720p.WEB-DL.D…mkv (3,18 GB) - uploaded.net
---
NitroFlare - Upload Files



===