Genre:Comedy|File Size: |Real HD-1080p-MKV|IMDB:6.3/10|Single+Multi links


When millionaire James King is jailed for fraud and bound for San Quentin, he turns to Darnell Lewis to prep him to go behind bars.

Code:
Title: Get Hard

Year: 2015

Genre: Comedy

Rating: 6.3 (10148 votes)

Runtime: 100 min

Director: Etan Cohen

Cast: Will Ferrell, Kevin Hart, Craig T. Nelson, Alison Brie


Code:

Get.Hard.2015.EXTENDED.1080p.WEB-DL.DD5.1.H264-RARBG
-------------------------------------------------------
Video
ID : 1
Format : AVC
Format/Info : Advanced Video Codec
Format profile : High@L4.0
Format settings, CABAC : Yes
Format settings, ReFrames : 4 frames
Codec ID : V_MPEG4/ISO/AVC
Duration : 1h 40mn
Bit rate : 4 911 Kbps
Width : 1 912 pixels
Height : 1 072 pixels
Display aspect ratio : 16:9
Frame rate mode : Constant
Frame rate : 23.976 fps
Color space : YUV
Chroma subsampling : 4:2:0
Bit depth : 8 bits
Scan type : Progressive
Bits/(Pixel*Frame) : 0.100
Stream size : 3.44 GiB (91%)
Title : Get.Hard.2015.EXTENDED.1080p.WEB-DL.DD5.1.H264-RARBG
Language : English
Default : Yes
Forced : No
Color primaries : BT.709
Transfer characteristics : BT.709
Matrix coefficients : BT.709
Color range : Limited

Audio
ID : 2
Format : AC-3
Format/Info : Audio Coding 3
Mode extension : CM (complete main)
Format settings, Endianness : Big
Codec ID : A_AC3
Duration : 1h 40mn
Bit rate mode : Constant
Bit rate : 384 Kbps
Channel(s) : 6 channels
Channel positions : Front: L C R, Side: L R, LFE
Sampling rate : 48.0 KHz
Bit depth : 16 bits
Compression mode : Lossy
Stream size : 275 MiB (7%)
Title : Get.Hard.2015.EXTENDED.1080p.WEB-DL.DD5.1.H264-RARBG
Language : English
Default : Yes
Forced : No

Text
ID : 3
Format : UTF-8
Codec ID : S_TEXT/UTF8
Codec ID/Info : UTF-8 Plain Text
Language : English
Default : Yes
Forced : No

Menu
00:00:00.000 : en:1
00:11:30.000 : en:2
00:20:52.000 : en:3
00:28:41.000 : en:4
00:40:56.000 : en:5
00:50:52.000 : en:6
01:00:05.000 : en:7
01:09:33.000 : en:8
01:19:08.000 : en:9
01:31:29.000 : en:10
01:36:35.000 : en:11

Code:

[Single Link]Openload: Single Link available for free users!
Code:
[Multiple Link - All links are interchangeable]
Code: