Roy (2015) (Hindi) 1080p BluRay x264 DTS E-Sub - TTS









Format : Matroska
Format version : Version 4 / Version 2
File size : 4.33 GiB
Duration : 2h 25mn
Overall bit rate : 4 270 Kbps
Movie name : Encoded By Kamalesh

Video
ID : 1
Format : AVC
Format/Info : Advanced Video Codec
Format profile : High@L4.1
Format settings, CABAC : Yes
Format settings, ReFrames : 5 frames
Codec ID : V_MPEG4/ISO/AVC
Duration : 2h 25mn
Bit rate : 3 500 Kbps
Width : 1 920 pixels
Height : 816 pixels
Display aspect ratio : 2.35:1
Frame rate mode : Constant
Frame rate : 24.000 fps
Color space : YUV
Chroma subsampling : 4:2:0
Bit depth : 8 bits
Scan type : Progressive
Bits/(Pixel*Frame) : 0.093
Stream size : 3.47 GiB (80%)
Title : Encoded By Kamalesh
Writing library : x264 core 146 r2538 121396c
Language : Hindi
Default : Yes
Forced : No
Color primaries : Generic film
Transfer characteristics : BT.709
Matrix coefficients : BT.709

Audio
ID : 2
Format : DTS
Format/Info : Digital Theater Systems
Mode : 16
Format settings, Endianness : Big
Codec ID : A_DTS
Duration : 2h 25mn
Bit rate mode : Constant
Bit rate : 768 Kbps
Channel(s) : 6 channels
Channel positions : Front: L C R, Side: L R, LFE
Sampling rate : 48.0 KHz
Bit depth : 24 bits
Compression mode : Lossy
Stream size : 798 MiB (18%)
Title : Encoded By Kamalesh
Language : Hindi
Default : Yes
Forced : No

Text
ID : 3
Format : UTF-8
Codec ID : S_TEXT/UTF8
Codec ID/Info : UTF-8 Plain Text
Title : English SRT
Language : English
Default : Yes
Forced : No







Single Link


Code:

Code:
Code:

1GB Links

Code:


Code:



Code: