Engeyum Eppothum 2011 Blu-ray 1080p AVC DTS 37.98 GB



DISC INFO:

Disc Title: [BD50] Engaeyum Eppothum 2011 Blu-ray 1080p AVC DTS-HD MA 5.1
Disc Size: 40,781,555,829 bytes
Protection: AACS
BD-Java: No
BDInfo: 0.5.8

PLAYLIST REPORT:

Name: 00000.MPLS
Length: 2:18:54.034 (h:m:s.ms)
Size: 40,625,201,280 bytes
Total Bitrate: 39.00 Mbps

VIDEO:

Codec Bitrate Description
----- ------- -----------
MPEG-4 AVC Video 29938 kbps 1080p / 23.976 fps / 16:9 / High Profile 4.1

AUDIO:

Codec Language Bitrate Description
----- -------- ------- -----------
DTS-HD Master Audio English 2401 kbps 5.1 / 48 kHz / 2401 kbps / 16-bit (DTS Core: 5.1 / 48 kHz / 1509 kbps / 16-bit)
LPCM Audio English 4608 kbps 5.1 / 48 kHz / 4608 kbps / 16-bit

SUBTITLES:

Codec Language Bitrate Description
----- -------- ------- -----------
Presentation Graphics English 25.108 kbps

FILES:

Name Time In Length Size Total Bitrate
---- ------- ------ ---- -------------
00000.M2TS 0:00:00.000 2:18:47.027 40,624,863,360 39,029
00007.M2TS 2:18:47.027 0:00:02.001 43,008 172
00006.M2TS 2:18:49.029 0:00:05.004 294,912 471

QUICK SUMMARY:

Disc Title: [BD50] Engeyum Eppothum 2011 Blu-ray 1080p AVC DTS-HD MA 5.1
Disc Size: 40,781,555,829 bytes
Protection: AACS
BD-Java: No
Playlist: 00000.MPLS
Size: 40,625,201,280 bytes
Length: 2:18:54.034
Total Bitrate: 39.00 Mbps
Video: MPEG-4 AVC Video / 29938 kbps / 1080p / 23.976 fps / 16:9 / High Profile 4.1
Audio: English / DTS-HD Master Audio / 5.1 / 48 kHz / 2401 kbps / 16-bit (DTS Core: 5.1 / 48 kHz / 1509 kbps / 16-bit)
Audio: English / LPCM Audio / 5.1 / 48 kHz / 4608 kbps / 16-bit
Subtitle: English / 25.108 kbps


Engeyum Eppothum Download Links:


Code:

Code:

Code:

Code:

Code:
One Folder for Tamil HD Movies
Code:
Important Note: The above folder will be updated ASAP. If the links are dead. Movies will be updated Regularly.