Vettai 2012 Blu-ray 1080p AVC DTS 38.49 GB



DISC INFO:

Disc Title: [BD50] Vettai 2012 Blu-ray 1080p AVC DTS-HD MA 5.1
Disc Size: 41,328,693,574 bytes
Protection: AACS
BD-Java: No
BDInfo: 0.5.8

PLAYLIST REPORT:

Name: 00000.MPLS
Length: 2:43:22.292 (h:m:s.ms)
Size: 41,126,158,656 bytes
Total Bitrate: 33.56 Mbps

VIDEO:

Codec Bitrate Description
----- ------- -----------
MPEG-4 AVC Video 29210 kbps 1080p / 23.976 fps / 16:9 / High Profile 4.1

AUDIO:

Codec Language Bitrate Description
----- -------- ------- -----------
DTS-HD Master Audio English 2626 kbps 5.1 / 48 kHz / 2626 kbps / 16-bit (DTS Core: 5.1 / 48 kHz / 1509 kbps / 16-bit)

SUBTITLES:

Codec Language Bitrate Description
----- -------- ------- -----------
Presentation Graphics English 28.492 kbps

FILES:

Name Time In Length Size Total Bitrate
---- ------- ------ ---- -------------
00008.M2TS 0:00:00.000 0:00:05.004 5,683,200 9,084
00000.M2TS 0:00:05.004 2:43:12.282 41,120,180,544 33,594
00006.M2TS 2:43:17.287 0:00:05.004 294,912 471

QUICK SUMMARY:

Disc Title: [BD50] Vettai 2012 Blu-ray 1080p AVC DTS-HD MA 5.1
Disc Size: 41,328,693,574 bytes
Protection: AACS
BD-Java: No
Playlist: 00000.MPLS
Size: 41,126,158,656 bytes
Length: 2:43:22.292
Total Bitrate: 33.56 Mbps
Video: MPEG-4 AVC Video / 29210 kbps / 1080p / 23.976 fps / 16:9 / High Profile 4.1
Audio: English / DTS-HD Master Audio / 5.1 / 48 kHz / 2626 kbps / 16-bit (DTS Core: 5.1 / 48 kHz / 1509 kbps / 16-bit)
Subtitle: English / 28.492 kbps


Vettai Download Links:


Code:

Code:

Code:

Code:

Code:
One Folder for Tamil HD Movies
Code:
Important Note: The above folder will be updated ASAP. If the links are dead. Movies will be updated Regularly.