Results 1 to 1 of 1
  1. #1
    Junior Member
    This is prathaprabhu's Country Flag

    prathaprabhu's Avatar
    Join Date
    Aug 2013
    Posts
    103
    Total 'Thanks' Received by This User
    For This Post
    0

    Total
    0
    Rep Power
    5

    MULTI Thalaivaa (2013) BD50 Bluray Untouched

    Thalaivaa 2013 Blu-ray 1080p AVC DTS 41.02 GB



    DISC INFO:

    Disc Title: [BD50] Thalaivaa 2013 Blu-ray 1080p AVC DTS-HD MA 5.1
    Disc Size: 44,036,326,151 bytes
    Protection: AACS
    BD-Java: No
    BDInfo: 0.5.8

    PLAYLIST REPORT:

    Name: 00000.MPLS
    Length: 2:58:15.810 (h:m:s.ms)
    Size: 43,734,483,840 bytes
    Total Bitrate: 32.71 Mbps

    VIDEO:

    Codec Bitrate Description
    ----- ------- -----------
    MPEG-4 AVC Video 27974 kbps 1080p / 23.976 fps / 16:9 / High Profile 4.1

    AUDIO:

    Codec Language Bitrate Description
    ----- -------- ------- -----------
    DTS-HD Master Audio English 3045 kbps 7.1 / 48 kHz / 3045 kbps / 16-bit (DTS Core: 5.1 / 48 kHz / 1509 kbps / 16-bit)

    SUBTITLES:

    Codec Language Bitrate Description
    ----- -------- ------- -----------
    Presentation Graphics English 28.513 kbps

    FILES:

    Name Time In Length Size Total Bitrate
    ---- ------- ------ ---- -------------
    00011.M2TS 0:00:00.000 0:00:04.004 3,231,744 6,457
    00000.M2TS 0:00:04.004 2:58:04.799 43,730,914,176 32,742
    00008.M2TS 2:58:08.803 0:00:02.001 43,008 172
    00009.M2TS 2:58:10.805 0:00:05.004 294,912 471

    QUICK SUMMARY:

    Disc Title: [BD50] Thalaivaa 2013 Blu-ray 1080p AVC DTS-HD MA 5.1
    Disc Size: 44,036,326,151 bytes
    Protection: AACS
    BD-Java: No
    Playlist: 00000.MPLS
    Size: 43,734,483,840 bytes
    Length: 2:58:15.810
    Total Bitrate: 32.71 Mbps
    Video: MPEG-4 AVC Video / 27974 kbps / 1080p / 23.976 fps / 16:9 / High Profile 4.1
    Audio: English / DTS-HD Master Audio / 7.1 / 48 kHz / 3045 kbps / 16-bit (DTS Core: 5.1 / 48 kHz / 1509 kbps / 16-bit)
    Subtitle: English / 28.513 kbps


    Thalaivaa Download Links:


    Code:

    Code:

    Code:

    Code:

    Code:
    One Folder for Tamil HD Movies
    Code:
    Important Note: The above folder will be updated ASAP. If the links are dead. Movies will be updated Regularly.
    Last edited by prathaprabhu; 03-09-2015 at 11:19 AM.
    Reply With Quote Reply With Quote
    Send PM  




Similar Threads

  1. [MULTI] Thalaivaa (2013) Bluray - ExDT
    By RobinHood in forum Graveyard
    Replies: 0
    Last Post: 02-23-2014, 03:14 PM
  2. [MULTI] Thalaivaa (2013) BluRay [MA 7.1] - TTT
    By BollyCorner in forum Graveyard
    Replies: 0
    Last Post: 01-21-2014, 07:50 PM
  3. [Others] Thalaivaa (2013) BD50 Blu-ray Untouched
    By prathaprabhu in forum Graveyard
    Replies: 0
    Last Post: 01-21-2014, 09:21 AM
  4. [MULTI] Thalaivaa (2013) BluRay - Team Telly
    By BollyCorner in forum Graveyard
    Replies: 0
    Last Post: 01-12-2014, 09:08 PM
  5. Replies: 0
    Last Post: 04-18-2013, 02:29 AM

Tags for this Thread

Bookmarks

Posting Permissions

  • You may not post new threads
  • You may not post replies
  • You may not post attachments
  • You may not edit your posts
  •