Anjaan 2014 Blu-ray 1080p AVC DTS 40.82 GB



DISC INFO:

Disc Title: [BD50] Anjaan 2014 Blu-ray 1080p AVC DTS-HD MA 5.1
Disc Size: 43,827,211,382 bytes
Protection: AACS
BD-Java: No
BDInfo: 0.5.8

PLAYLIST REPORT:

Name: 00000.MPLS
Length: 2:27:44.730 (h:m:s.ms)
Size: 43,615,910,976 bytes
Total Bitrate: 39.36 Mbps

VIDEO:

Codec Bitrate Description
----- ------- -----------
MPEG-4 AVC Video 29945 kbps 1080p / 23.976 fps / 16:9 / High Profile 4.1

AUDIO:

Codec Language Bitrate Description
----- -------- ------- -----------
DTS-HD Master Audio English 2746 kbps 5.1 / 48 kHz / 2746 kbps / 16-bit (DTS Core: 5.1 / 48 kHz / 1509 kbps / 16-bit)
LPCM Audio English 4608 kbps 5.1 / 48 kHz / 4608 kbps / 16-bit

SUBTITLES:

Codec Language Bitrate Description
----- -------- ------- -----------
Presentation Graphics English 24.514 kbps

FILES:

Name Time In Length Size Total Bitrate
---- ------- ------ ---- -------------
00011.M2TS 0:00:00.000 0:00:05.004 7,888,896 12,610
00000.M2TS 0:00:05.004 2:27:32.718 43,607,684,160 39,407
00004.M2TS 2:27:37.723 0:00:02.001 43,008 172
00003.M2TS 2:27:39.725 0:00:05.004 294,912 471

QUICK SUMMARY:

Disc Title: [BD50] Anjaan 2014 Blu-ray 1080p AVC DTS-HD MA 5.1
Disc Size: 43,827,211,382 bytes
Protection: AACS
BD-Java: No
Playlist: 00000.MPLS
Size: 43,615,910,976 bytes
Length: 2:27:44.730
Total Bitrate: 39.36 Mbps
Video: MPEG-4 AVC Video / 29945 kbps / 1080p / 23.976 fps / 16:9 / High Profile 4.1
Audio: English / DTS-HD Master Audio / 5.1 / 48 kHz / 2746 kbps / 16-bit (DTS Core: 5.1 / 48 kHz / 1509 kbps / 16-bit)
Audio: English / LPCM Audio / 5.1 / 48 kHz / 4608 kbps / 16-bit
Subtitle: English / 24.514 kbps


Anjaan Download Links:


Code:

Code:

Code:

Code:

Code:
One Folder for Tamil HD Movies
Code:
Important Note: The above folder will be updated ASAP. If the links are dead. Movies will be updated Regularly.