Voyage of Darwin's Beagle: On The Future of Species 2009 2-Disc Edition Blu-ray 1080i VC-1 DD2.0-CHDBits


Code:


Code:


Code:


Code:

Code:


Code:

Code:


Code:

BDInfo Report: Disc 1



DISC INFO:

Disc Title: BEAGLE_D1
Disc Size: 43 604 784 688 bytes
Protection: AACS
BD-Java: No
Extras: 50Hz Content
BDInfo: 0.5.8

PLAYLIST REPORT:

Name: 00002.MPLS
Length: 0:50:05.040 (h:m:s.ms)
Size: 10 902 392 832 bytes
Total Bitrate: 29,02 Mbps

VIDEO:

Codec Bitrate Description
----- ------- -----------
VC-1 Video 26995 kbps 1080i / 25 fps / 16:9 / Advanced Profile 3

AUDIO:

Codec Language Bitrate Description
----- -------- ------- -----------
Dolby Digital Audio English 640 kbps 2.0 / 48 kHz / 640 kbps

SUBTITLES:

Codec Language Bitrate Description
----- -------- ------- -----------
Presentation Graphics Dutch 56,961 kbps

FILES:

Name Time In Length Size Total Bitrate
---- ------- ------ ---- -------------
00009.M2TS 0:00:00.000 0:50:04.040 10 902 343 680 29 034
00008.M2TS 0:50:04.040 0:00:01.000 49 152 393

PLAYLIST REPORT:

Name: 00007.MPLS
Length: 0:50:03.440 (h:m:s.ms)
Size: 10 894 417 920 bytes
Total Bitrate: 29,02 Mbps

VIDEO:

Codec Bitrate Description
----- ------- -----------
VC-1 Video 26994 kbps 1080i / 25 fps / 16:9 / Advanced Profile 3

AUDIO:

Codec Language Bitrate Description
----- -------- ------- -----------
Dolby Digital Audio English 640 kbps 2.0 / 48 kHz / 640 kbps

SUBTITLES:

Codec Language Bitrate Description
----- -------- ------- -----------
Presentation Graphics Dutch 52,201 kbps

FILES:

Name Time In Length Size Total Bitrate
---- ------- ------ ---- -------------
00010.M2TS 0:00:00.000 0:50:02.440 10 894 368 768 29 028
00008.M2TS 0:50:02.440 0:00:01.000 49 152 393

PLAYLIST REPORT:

Name: 00008.MPLS
Length: 0:50:01.520 (h:m:s.ms)
Size: 10 888 562 688 bytes
Total Bitrate: 29,02 Mbps

VIDEO:

Codec Bitrate Description
----- ------- -----------
VC-1 Video 26995 kbps 1080i / 25 fps / 16:9 / Advanced Profile 3

AUDIO:

Codec Language Bitrate Description
----- -------- ------- -----------
Dolby Digital Audio English 640 kbps 2.0 / 48 kHz / 640 kbps

SUBTITLES:

Codec Language Bitrate Description
----- -------- ------- -----------
Presentation Graphics Dutch 53,785 kbps

FILES:

Name Time In Length Size Total Bitrate
---- ------- ------ ---- -------------
00011.M2TS 0:00:00.000 0:50:00.520 10 888 513 536 29 031
00008.M2TS 0:50:00.520 0:00:01.000 49 152 393

PLAYLIST REPORT:

Name: 00000.MPLS
Length: 0:50:03.800 (h:m:s.ms)
Size: 10 898 749 440 bytes
Total Bitrate: 29,03 Mbps

VIDEO:

Codec Bitrate Description
----- ------- -----------
VC-1 Video 27003 kbps 1080i / 25 fps / 16:9 / Advanced Profile 3

AUDIO:

Codec Language Bitrate Description
----- -------- ------- -----------
Dolby Digital Audio English 640 kbps 2.0 / 48 kHz / 640 kbps

SUBTITLES:

Codec Language Bitrate Description
----- -------- ------- -----------
Presentation Graphics Dutch 50,590 kbps

FILES:

Name Time In Length Size Total Bitrate
---- ------- ------ ---- -------------
00012.M2TS 0:00:00.000 0:50:03.800 10 898 749 440 29 027

BDInfo Report: Disc 2


DISC INFO:

Disc Title: BEAGLE_D2
Disc Size: 43 532 691 935 bytes
Protection: AACS
BD-Java: No
Extras: 50Hz Content
BDInfo: 0.5.8

PLAYLIST REPORT:

Name: 00002.MPLS
Length: 0:49:55.120 (h:m:s.ms)
Size: 10 862 690 304 bytes
Total Bitrate: 29,01 Mbps

VIDEO:

Codec Bitrate Description
----- ------- -----------
VC-1 Video 26993 kbps 1080i / 25 fps / 16:9 / Advanced Profile 3

AUDIO:

Codec Language Bitrate Description
----- -------- ------- -----------
Dolby Digital Audio English 640 kbps 2.0 / 48 kHz / 640 kbps

SUBTITLES:

Codec Language Bitrate Description
----- -------- ------- -----------
Presentation Graphics Dutch 49,651 kbps

FILES:

Name Time In Length Size Total Bitrate
---- ------- ------ ---- -------------
00001.M2TS 0:00:00.000 0:49:54.120 10 862 641 152 29 024
00008.M2TS 0:49:54.120 0:00:01.000 49 152 393

PLAYLIST REPORT:

Name: 00007.MPLS
Length: 0:50:03.239 (h:m:s.ms)
Size: 10 894 473 216 bytes
Total Bitrate: 29,02 Mbps

VIDEO:

Codec Bitrate Description
----- ------- -----------
VC-1 Video 26993 kbps 1080i / 25 fps / 16:9 / Advanced Profile 3

AUDIO:

Codec Language Bitrate Description
----- -------- ------- -----------
Dolby Digital Audio English 640 kbps 2.0 / 48 kHz / 640 kbps

SUBTITLES:

Codec Language Bitrate Description
----- -------- ------- -----------
Presentation Graphics Dutch 55,048 kbps

FILES:

Name Time In Length Size Total Bitrate
---- ------- ------ ---- -------------
00004.M2TS 0:00:00.000 0:50:02.239 10 894 424 064 29 030
00008.M2TS 0:50:02.239 0:00:01.000 49 152 393

PLAYLIST REPORT:

Name: 00008.MPLS
Length: 0:49:56.040 (h:m:s.ms)
Size: 10 868 729 856 bytes
Total Bitrate: 29,02 Mbps

VIDEO:

Codec Bitrate Description
----- ------- -----------
VC-1 Video 26994 kbps 1080i / 25 fps / 16:9 / Advanced Profile 3

AUDIO:

Codec Language Bitrate Description
----- -------- ------- -----------
Dolby Digital Audio English 640 kbps 2.0 / 48 kHz / 640 kbps

SUBTITLES:

Codec Language Bitrate Description
----- -------- ------- -----------
Presentation Graphics Dutch 55,086 kbps

FILES:

Name Time In Length Size Total Bitrate
---- ------- ------ ---- -------------
00006.M2TS 0:00:00.000 0:49:55.040 10 868 680 704 29 031
00008.M2TS 0:49:55.040 0:00:01.000 49 152 393

PLAYLIST REPORT:

Name: 00000.MPLS
Length: 0:50:00.239 (h:m:s.ms)
Size: 10 886 148 096 bytes
Total Bitrate: 29,03 Mbps

VIDEO:

Codec Bitrate Description
----- ------- -----------
VC-1 Video 27003 kbps 1080i / 25 fps / 16:9 / Advanced Profile 3

AUDIO:

Codec Language Bitrate Description
----- -------- ------- -----------
Dolby Digital Audio English 640 kbps 2.0 / 48 kHz / 640 kbps

SUBTITLES:

Codec Language Bitrate Description
----- -------- ------- -----------
Presentation Graphics Dutch 52,191 kbps

FILES:

Name Time In Length Size Total Bitrate
---- ------- ------ ---- -------------
00007.M2TS 0:00:00.000 0:50:00.239 10 886 148 096 29 027


Code: