Dave Skylark and producer Aaron Rapoport run the celebrity tabloid show "Skylark Tonight." When they land an interview with a surprise fan, North Korean dictator Kim Jong-un, they are recruited by the CIA to turn their trip to Pyongyang into an assassination mission

Format: MPEG-4
Format profile: Base Media / Version 2
Codec ID: mp42
File size: 2.83 GiB
Duration: 1h 52mn
Overall bit rate mode: Variable
Overall bit rate: 3 611 Kbps
Encoded date: UTC 2014-12-23 01:37:54
Tagged date: UTC 2014-12-23 01:37:54

Video
ID: 1
Format: AVC
Format/Info: Advanced Video Codec
Format profile: High@L4.2
/* */
Format settings, CABAC: Yes
Format settings, ReFrames: 2 frames
Codec ID: avc1
Codec ID/Info: Advanced Video Coding
Duration: 1h 52mn
Bit rate mode: Variable
Bit rate: 3 482 Kbps
Maximum bit rate: 3 518 Kbps
Width: 1 920 pixels
Height: 1 080 pixels
Display aspect ratio: 16:9
Frame rate mode: Constant
Frame rate: 23.976 fps
Color space: YUV
Chroma subsampling: 4:2:0
Bit depth: 8 bits
Scan type: Progressive
Bits/(Pixel*Frame): 0.070
Stream size: 2.73 GiB (96%)
Encoded date: UTC 2014-12-23 01:37:54
Tagged date: UTC 2014-12-23 01:37:54
Color range: Limited

Audio
ID: 2
Format: AAC
Format/Info: Advanced Audio Codec
Format profile: LC
Codec ID: 40
Duration: 1h 52mn
Source duration: 1h 52mn
Bit rate mode: Constant
Bit rate: 128 Kbps
Channel(s): 2 channels
Channel positions: Front: L R
Sampling rate: 44.1 KHz
Compression mode: Lossy
Stream size: 101 MiB (3%)
Source stream size: 101 MiB (3%)
Language: English













DOWNLOAD LINKS

Code:
Code:
Code: