Results 1 to 1 of 1
  1. #1
    Junior Member
    This is prathaprabhu's Country Flag

    prathaprabhu's Avatar
    Join Date
    Aug 2013
    Posts
    103
    Total 'Thanks' Received by This User
    For This Post
    0

    Total
    0
    Rep Power
    5

    Mundasupatti (2014) BD50 Bluray Untouched

    Mundasupatti 2014 Blu-ray 1080p AVC DTS 39.99 GB



    DISC INFO:

    Disc Title: [BD50] Mundasupatti 2014 Blu-ray 1080p AVC DTS-HD MA 5.1
    Disc Size: 42,933,678,768 bytes
    Protection: AACS
    BD-Java: No
    BDInfo: 0.5.8

    PLAYLIST REPORT:

    Name: 00000.MPLS
    Length: 2:25:30.596 (h:m:s.ms)
    Size: 42,722,223,360 bytes
    Total Bitrate: 39.15 Mbps

    VIDEO:

    Codec Bitrate Description
    ----- ------- -----------
    MPEG-4 AVC Video 29964 kbps 1080p / 23.976 fps / 16:9 / High Profile 4.1

    AUDIO:

    Codec Language Bitrate Description
    ----- -------- ------- -----------
    DTS-HD Master Audio English 2512 kbps 5.1 / 48 kHz / 2512 kbps / 16-bit (DTS Core: 5.1 / 48 kHz / 1509 kbps / 16-bit)
    LPCM Audio English 3840 kbps 5.0 / 48 kHz / 3840 kbps / 16-bit

    SUBTITLES:

    Codec Language Bitrate Description
    ----- -------- ------- -----------
    Presentation Graphics English 35.274 kbps

    FILES:

    Name Time In Length Size Total Bitrate
    ---- ------- ------ ---- -------------
    00009.M2TS 0:00:00.000 0:00:05.004 5,357,568 8,564
    00000.M2TS 0:00:05.004 2:25:18.584 42,716,527,872 39,196
    00005.M2TS 2:25:23.589 0:00:02.001 43,008 172
    00004.M2TS 2:25:25.591 0:00:05.004 294,912 471

    QUICK SUMMARY:

    Disc Title: [BD50] Mundasupatti 2014 Blu-ray 1080p AVC DTS-HD MA 5.1
    Disc Size: 42,933,678,768 bytes
    Protection: AACS
    BD-Java: No
    Playlist: 00000.MPLS
    Size: 42,722,223,360 bytes
    Length: 2:25:30.596
    Total Bitrate: 39.15 Mbps
    Video: MPEG-4 AVC Video / 29964 kbps / 1080p / 23.976 fps / 16:9 / High Profile 4.1
    Audio: English / DTS-HD Master Audio / 5.1 / 48 kHz / 2512 kbps / 16-bit (DTS Core: 5.1 / 48 kHz / 1509 kbps / 16-bit)
    Audio: English / LPCM Audio / 5.0 / 48 kHz / 3840 kbps / 16-bit
    Subtitle: English / 35.274 kbps


    Mundasupatti Download Links:


    Code:

    Code:

    Code:

    Code:

    Code:
    One Folder for Tamil HD Movies
    Code:
    Important Note: The above folder will be updated ASAP. If the links are dead. Movies will be updated Regularly.
    Last edited by prathaprabhu; 03-07-2015 at 08:35 AM.
    Reply With Quote Reply With Quote
    Send PM  




Similar Threads

  1. [MULTI] Cuckoo (2014) BD50 Bluray Untouched
    By prathaprabhu in forum Graveyard
    Replies: 0
    Last Post: 12-20-2014, 02:18 PM
  2. [MULTI] Mundasupatti (2014) 720p BluRay x264 DTS Esubs-TeamTMR
    By BollyCorner in forum Graveyard
    Replies: 0
    Last Post: 12-04-2014, 09:00 AM
  3. [MULTI] Mundasupatti (2014) 1080p BluRay x264 DTSHD-MA Esubs-TeamTMR
    By BollyCorner in forum Graveyard
    Replies: 0
    Last Post: 12-03-2014, 09:20 PM
  4. [MULTI] Need for Speed 2014 ML BD50 Untouched - HDAccess
    By Jackiechan in forum Graveyard
    Replies: 0
    Last Post: 07-15-2014, 06:52 AM
  5. Replies: 0
    Last Post: 04-18-2013, 02:29 AM

Tags for this Thread

Bookmarks

Posting Permissions

  • You may not post new threads
  • You may not post replies
  • You may not post attachments
  • You may not edit your posts
  •