Results 1 to 1 of 1
  1. #1
    Junior Member
    This is prathaprabhu's Country Flag

    prathaprabhu's Avatar
    Join Date
    Aug 2013
    Posts
    103
    Total 'Thanks' Received by This User
    For This Post
    0

    Total
    0
    Rep Power
    5

    Cuckoo (2014) BD50 Bluray Untouched

    Cuckoo 2014 Blu-ray 1080p AVC LPCM & DTS 42.48 GB



    DISC INFO:

    Disc Title: [BD50] Cuckoo 2014 Blu-ray 1080p AVC DTS-HD MA 5.1
    Disc Size: 45,620,379,726 bytes
    Protection: AACS
    BD-Java: No
    BDInfo: 0.5.8

    PLAYLIST REPORT:

    Name: 00000.MPLS
    Length: 2:35:01.292 (h:m:s.ms)
    Size: 45,402,113,088 bytes
    Total Bitrate: 39.05 Mbps

    VIDEO:

    Codec Bitrate Description
    ----- ------- -----------
    MPEG-4 AVC Video 29973 kbps 1080p / 23.976 fps / 16:9 / High Profile 4.1

    AUDIO:

    Codec Language Bitrate Description
    ----- -------- ------- -----------
    DTS-HD Master Audio English 2407 kbps 5.1 / 48 kHz / 2407 kbps / 16-bit (DTS Core: 5.1 / 48 kHz / 1509 kbps / 16-bit)
    LPCM Audio English 4608 kbps 5.1 / 48 kHz / 4608 kbps / 16-bit

    SUBTITLES:

    Codec Language Bitrate Description
    ----- -------- ------- -----------
    Presentation Graphics English 37.872 kbps

    FILES:

    Name Time In Length Size Total Bitrate
    ---- ------- ------ ---- -------------
    00009.M2TS 0:00:00.000 0:00:05.004 4,042,752 6,462
    00000.M2TS 0:00:05.004 2:34:49.280 45,397,732,416 39,097
    00005.M2TS 2:34:54.285 0:00:02.001 43,008 172
    00004.M2TS 2:34:56.287 0:00:05.004 294,912 471

    QUICK SUMMARY:

    Disc Title: [BD50] Cuckoo 2014 Blu-ray 1080p AVC DTS-HD MA 5.1
    Disc Size: 45,620,379,726 bytes
    Protection: AACS
    BD-Java: No
    Playlist: 00000.MPLS
    Size: 45,402,113,088 bytes
    Length: 2:35:01.292
    Total Bitrate: 39.05 Mbps
    Video: MPEG-4 AVC Video / 29973 kbps / 1080p / 23.976 fps / 16:9 / High Profile 4.1
    Audio: English / DTS-HD Master Audio / 5.1 / 48 kHz / 2407 kbps / 16-bit (DTS Core: 5.1 / 48 kHz / 1509 kbps / 16-bit)
    Audio: English / LPCM Audio / 5.1 / 48 kHz / 4608 kbps / 16-bit
    Subtitle: English / 37.872 kbps


    Cuckoo Download Links:


    Code:

    Code:

    Code:

    Code:

    Code:
    One Folder for Tamil HD Movies
    Code:
    Important Note: The above folder will be updated ASAP. If the links are dead. Movies will be updated Regularly.
    Last edited by prathaprabhu; 03-07-2015 at 08:43 AM.
    Reply With Quote Reply With Quote
    Send PM  




Similar Threads

  1. [MULTI] One Flew Over the Cuckoo's Nest (1975) BD50 CEE Bluray
    By Elite in forum Untouched Blu-Ray Discs
    Replies: 18
    Last Post: 10-11-2017, 06:06 AM
  2. [MULTI] Need for Speed 2014 ML BD50 Untouched - HDAccess
    By Jackiechan in forum Graveyard
    Replies: 0
    Last Post: 07-15-2014, 06:52 AM
  3. [MULTI] Rio 2 - Dschungelfieber 2014 3D ML BD50 Untouched - TRUEDEF
    By Jackiechan in forum 3D Full BD or HDDVD Movies
    Replies: 2
    Last Post: 07-04-2014, 04:38 AM
  4. [MULTI] Rio 2 - Dschungelfieber 2014 ML BD50 Untouched - TRUEDEF
    By Jackiechan in forum Graveyard
    Replies: 3
    Last Post: 06-29-2014, 04:43 PM
  5. Replies: 0
    Last Post: 04-18-2013, 02:29 AM

Tags for this Thread

Bookmarks

Posting Permissions

  • You may not post new threads
  • You may not post replies
  • You may not post attachments
  • You may not edit your posts
  •