Cop Land (1997)


Details :
[RATING] ===== [ 6.9/10 from 59,841 users Metascore: 64/100 ]
[GENRE] ===== [ Crime | Drama | Thriller ]
[STARS] ===== [ Sylvester Stallone, Harvey Keitel, Ray Liotta ]
[PLOT] ===== [ The sheriff of a suburban New Jersey community populated by New York City policemen slowly discovers the town is a front for mob connections and corruption. ]
IMDb :
Code:
Samples:






720p PRiSTiNE Quality
Release Nfo :
General
Complete name : Cop Land 1997 BRRip 720p x264 AAC - PRiSTiNE.mp4
Format : MPEG-4
File size : 700 MiB
Duration : 1h 56mn
Overall bit rate mode : Variable
Overall bit rate : 841 Kbps

Video
Format : AVC
Format/Info : Advanced Video Codec
Format profile : High 10@L4.1
Bit rate : 759 Kbps
Width : 1 280 pixels
Height : 688 pixels
Display aspect ratio : 1.85:1
Frame rate mode : Constant
Frame rate : 23.976 fps
Color space : YUV
Chroma subsampling : 4:2:0
Bit depth : 10 bits
Stream size : 631 MiB (90%)
Writing library : x264 core 130 r2273 b3065e6

Audio
Format : AAC
Format/Info : Advanced Audio Codec
Bit rate : 80.0 Kbps
Channel(s) : 2 channels
Channel positions : Front: L R
Sampling rate : 48.0 KHz / 24.0 KHz
Stream size : 66.5 MiB (10%)
Language : English

Subtitle : Yes (English)
Source : DC.720p.BluRay.DTS.x264-PublicHD (Thanks)
DOWNLOAD Links : Uploaded / Rapidgator / DataFile / 1fichier / Billionuploads +++
Code:
Code: