The Whole Nine Yards (2000)


Details :
[RATING] ===== [ 6.7/10 from 80,034 users Metascore: 47/100 ]
[GENRE] ===== [ Comedy | Crime ]
[STARS] ===== [ Bruce Willis, Matthew Perry, Rosanna Arquette ]
[PLOT] ===== [ Nick is a struggling dentist in Canada. A new neighbor moves in, and he discovers that it is Jimmy "The Tulip" Teduski. His wife convinces him to go to Chicago and inform the mob boss who wants Jimmy dead. ]
IMDb :
Code:
Samples:



720p MKV Quality
Release Nfo :
The Whole Nine Yards (2000) 720p AC3 HDTV NoLogos

Format : Matroska
Format version : Version 4 / Version 2
File size : 2.00 GiB
Duration : 1h 38mn
Overall bit rate mode : Variable
Overall bit rate : 2 900 Kbps
Encoded date : UTC 2010-02-22 21:41:31
Writing application : mkvmerge v5.9.0 ('On The Loose') built on Dec 9 2012 15:37:01
Writing library : libebml v1.3.0 + libmatroska v1.4.0

Video
ID : 1
Format : AVC
Format/Info : Advanced Video Codec
Format profile : High@L4.1
Format settings, CABAC : Yes
Format settings, ReFrames : 7 frames
Codec ID : V_MPEG4/ISO/AVC
Duration : 1h 38mn
Bit rate mode : Variable
Bit rate : 2 459 Kbps
Maximum bit rate : 8.2 Mbps
Width : 1 280 pixels
Height : 692 pixels
Display aspect ratio : 1.850
Frame rate : 23.976 fps
Color space : YUV
Chroma subsampling : 4:2:0
Bit depth : 8 bits
Scan type : Progressive
Bits/(Pixel*Frame) : 0.116
Stream size : 1.70 GiB (85%)
Writing library : x264 core 129 r2230 1cffe9f
Language : English
Default : Yes
Forced : No

Audio
ID : 2
Format : AC-3
Format/Info : Audio Coding 3
Mode extension : CM (complete main)
Codec ID : A_AC3
Duration : 1h 38mn
Bit rate mode : Constant
Bit rate : 384 Kbps
Channel(s) : 6 channels
Channel positions : Front: L C R, Side: L R, LFE
Sampling rate : 48.0 KHz
Bit depth : 16 bits
Compression mode : Lossy
Stream size : 272 MiB (13%)
Language : English
Default : Yes
Forced : No
DOWNLOAD Links : Rapidgator / Uploaded / DataFile / 1Fichier / BillionUploads / ClicknUpload / 180upload +++
Code:
Code: