Results 1 to 3 of 3
  1. #1
    VIP
    This is Shadow_Whisper's Country Flag

    Shadow_Whisper's Avatar
    Join Date
    Apr 2014
    Posts
    4,274
    Total 'Thanks' Received by This User
    For This Post
    2

    Total
    170

    Ranks Showcase
    Total Ranks: 1

    Rep Power
    44

    MULTI Knight and Day 2010 Extended BluRay m-720p x264-AstalaVista


    Genre: Action,Comedy|File Size:2.64GB|Real HD-720p-MKV|IMDB:6.3/10|Single+1GB links



    A young woman gets mixed up with a disgraced spy who is trying to clear his name.


    Code:

    Ratings: 6.3/10 from 122,203 users Metascore: 46/100
    Reviews: 337 user | 279 critic | 38 from Metacritic




    Code:


    General
    Release name : Knight and Day 2010 Extended MultiSubs BluRay m-720p x264-AstalaVista
    Format : Matroska
    File size : 2.65 GiB
    Duration : 1h 57mn
    Overall bit rate : 3 239 Kbps
    Encoded date : UTC 2014-10-19 18:16:52
    Duration : 1h 57mn


    Video
    Format : AVC
    Format settings, CABAC : Yes
    Format settings, ReFrames : 5 frames
    Bit rate : 2 800 Kbps
    Maximum bit rate : 10 000 Kbps
    Width : 1 280 pixels
    Height : 534 pixels
    Display aspect ratio : 2.40:1
    Frame rate : 23.976 fps
    Stream size : 2.23 GiB (84%)


    Audio
    Format : AC-3
    Format/Info : Audio Coding 3
    Duration : 1h 57mn
    Bit rate mode : Constant
    Bit rate : 448 Kbps
    Channel(s) : 6 channels
    Channel positions : Front: L C R, Side: L R, LFE
    Sampling rate : 48.0 KHz
    Bit depth : 16 bits
    Stream size : 375 MiB (14%)
    Language : English
    Default : Yes













    Code:


    Lock

    Code:

    Reply With Quote Reply With Quote
    Send PM  

  2. Who Said Thanks:

    atahualpaFX (11-29-2014), AlirezaBB (10-19-2014)



  • #2
    Junior Member
    This is roberthls's Country Flag

    roberthls's Avatar
    Join Date
    Jun 2013
    Posts
    52
    Total 'Thanks' Received by This User
    For This Post
    0

    Total
    0
    Rep Power
    5
    thank you man... nice encode...
    Reply With Quote Reply With Quote
    Send PM  

  • #3
    Attivo
    This is atahualpaFX's Country Flag

    atahualpaFX's Avatar
    Join Date
    Jun 2012
    Posts
    2,062
    Total 'Thanks' Received by This User
    For This Post
    0

    Total
    125
    Rep Power
    20
    Thank you for sharing. :)
    Reply With Quote Reply With Quote
    Send PM  


  • Similar Threads

    1. [MULTI] Hercules 2014 EXTENDED m720p BluRay X264-AstalaVista
      By Shadow_Whisper in forum Graveyard
      Replies: 0
      Last Post: 10-29-2014, 08:05 AM
    2. Replies: 2
      Last Post: 10-26-2014, 01:59 AM
    3. [MULTI] Knight And Day (2010) 720p BluRay x264 x0r
      By FilmaX in forum Graveyard
      Replies: 0
      Last Post: 10-06-2014, 09:44 PM
    4. [MULTI] Knight And Day 2010 720p BluRay x264 x0r
      By heaven in forum Graveyard
      Replies: 0
      Last Post: 10-04-2014, 03:33 PM
    5. [UL] Knight and Day (2010) [ Extended Cut ] Bluray
      By painkillers2010 in forum Graveyard
      Replies: 0
      Last Post: 08-29-2013, 02:16 AM

    Tags for this Thread

    Bookmarks

    Posting Permissions

    • You may not post new threads
    • You may not post replies
    • You may not post attachments
    • You may not edit your posts
    •