Results 1 to 2 of 2
  1. #1
    VIP
    This is Shadow_Whisper's Country Flag

    Shadow_Whisper's Avatar
    Join Date
    Apr 2014
    Posts
    4,274
    Total 'Thanks' Received by This User
    For This Post
    0

    Total
    170

    Ranks Showcase
    Total Ranks: 1

    Rep Power
    44

    MULTI How to Train Your Dragon 2 2014 m-720p BluRay x264-AstalaVista


    Genre: Animation,Adventure|File Size:2.05GB|Real HD-720p-MKV|IMDB:8.2/10|Single+1GB links



    When Hiccup and Toothless discover an ice cave that is home to hundreds of new wild dragons and the mysterious Dragon Rider, the two friends find themselves at the center of a battle to protect the peace.


    Code:

    Ratings: 8.3/10 from 58,327 users Metascore: 76/100
    Reviews: 226 user | 224 critic | 39 from Metacritic




    Code:


    General
    Release Name : How to Train Your Drag0n 2 2014 m-720pp BluRay x264-AstalaVista
    Format : Matroska
    File size : 2.05 GiB
    Duration : 1h 41mn
    Overall bit rate : 2 883 Kbps
    Encoded date : UTC 2014-10-19 03:32:03


    Video
    Format/Info : Advanced Video Codec
    Format profile : High@L3.0
    Format settings, CABAC : Yes
    Duration : 1h 41mn
    Bit rate : 2 500 Kbps
    Maximum bit rate : 10 000 Kbps
    Width : 1 280 pixels
    Height : 544 pixels
    Display aspect ratio : 2.35:1
    Frame rate mode : Constant
    Frame rate : 23.976 fps
    Stream size : 1.74 GiB (85%)


    Audio
    Format : AC-3
    Format/Info : Audio Coding 3
    Format settings, Endianness : Big
    Duration : 1h 41mn
    Bit rate mode : Constant
    Bit rate : 384 Kbps
    Channel(s) : 6 channels
    Channel positions : Front: L C R, Side: L R, LFE
    Sampling rate : 48.0 KHz
    Bit depth : 16 bits
    Compression mode : Lossy
    Stream size : 280 MiB (13%)
    Language : English











    Code:


    Code:

    Lock

    Reply With Quote Reply With Quote
    Send PM  



  • #2
    Advanced User
    This is dybuc's Country Flag

    dybuc's Avatar
    Join Date
    Oct 2013
    Posts
    436
    Total 'Thanks' Received by This User
    For This Post
    0

    Total
    12
    Rep Power
    6
    thanks a lot my friend
    Reply With Quote Reply With Quote
    Send PM  


  • Similar Threads

    1. [MULTI] How To Train Your Dragon 2 (2014) 720p BluRay x264-DAA
      By looper in forum Graveyard
      Replies: 0
      Last Post: 10-25-2014, 12:43 PM
    2. [MULTI] How To Train Your Dragon 2 (2014) 720p BluRay x264 x0r
      By FilmaX in forum Graveyard
      Replies: 0
      Last Post: 10-22-2014, 05:32 AM
    3. [MULTI] How to Train Your Dragon 2 (2014) 720p Bluray x264 DTS-EVO
      By otik00 in forum Graveyard
      Replies: 0
      Last Post: 10-18-2014, 04:51 PM
    4. [MULTI] How to Train Your Dragon 2 (2014) 720p WEB-DL x264 AC3-EVO
      By pocapoca in forum Graveyard
      Replies: 0
      Last Post: 09-02-2014, 09:33 AM
    5. [MULTI] How to Train Your Dragon 2 (2014) 720p WEB-DL x264 AC3-EVO
      By LoVe4EvEr in forum Graveyard
      Replies: 0
      Last Post: 09-01-2014, 03:50 AM

    Tags for this Thread

    Bookmarks

    Posting Permissions

    • You may not post new threads
    • You may not post replies
    • You may not post attachments
    • You may not edit your posts
    •