300: Rise of an Empire (2014)





MOVIE:
Director: Noam Murro
Writer:: Zack Snyder, Kurt Johnstad
Genres: Action | Drama | Fantasy
Country: USA
Release Date: 2014
Runtime: 102min
Ratings: 6,4/10 from 143 164 users


Plot:
After its victory over Leonidas' 300, the Persian Army under the command of Xerxes marches towards the major Greek city-states. The Democratic city of Athens, first on the path of Xerxes' army, bases its strength on its fleet, led by admiral Themistocles. Themistocles is forced to an unwilling alliance with the traditional rival of Athens, oligarchic Sparta whose might lies with its superior infantry troops. But Xerxes still reigns supreme in numbers over sea and land.


CAST:
Sullivan Stapleton - Themistocles
Eva Green - Artemisia
Lena Headey - Queen Gorgo
Hans Matheson - Aeskylos
Callan Mulvey - Scyllias
....


INFO:

SOURCE: BluRay
AUDIO1: English DD 5.1 @ 640 Kbps
SUBTITLES: English (UTF-8)
BITRATE: 2775 Kbps / 2pass / 12ref
ASPECT RATIO: 2.40
FRAME RATE: 23.976fps
VIDEO CODEC: x264
EXTENSIONS: mkv (Matroska)
RESOLUTION: 1280x528p
EXTRAS: Chapters
SIZE: 2,45GiB

x264 - mediainfo
General
Unique ID : 179402782872238100272194496878614947023 (0x86F7B81B21D7BBC4B36441E3AE8424CF)
Complete name : 300 Rise Of An Empire 2014 m720p BluRay AC3 x264-DomeLL.mkv
Format : Matroska
Format version : Version 2
File size : 2.45 GiB
Duration : 1h 42mn
Overall bit rate : 3 415 Kbps
Encoded date : UTC 2014-09-30 17:47:40
Writing application : mkvmerge v3.4.0 ('Rapunzel') built on May 15 2010 09:38:20
Writing library : libebml v0.8.0 + libmatroska v0.9.0


Video
ID : 1
Format : AVC
Format/Info : Advanced Video Codec
Format profile : High@L4.1
Format settings, CABAC : Yes
Format settings, ReFrames : 12 frames
Codec ID : V_MPEG4/ISO/AVC
Duration : 1h 42mn
Bit rate : 2 775 Kbps
Width : 1 280 pixels
Height : 528 pixels
Display aspect ratio : 2.40:1
Frame rate mode : Constant
Frame rate : 23.976 fps
Color space : YUV
Chroma subsampling : 4:2:0
Bit depth : 8 bits
Scan type : Progressive
Bits/(Pixel*Frame) : 0.171
Stream size : 1.94 GiB (79%)
Writing library : x264 core 129 r2230 1cffe9f
Encoding settings : cabac=1 / ref=12 / deblock=1:-3:-3 / analyse=0x3:0x133 / me=umh / subme=9 / psy=1 / psy_rd=1.00:0.05 / mixed_ref=1 / me_range=64 / chroma_me=1 / trellis=2 / 8x8dct=1 / cqm=0 / deadzone=21,11 / fast_pskip=0 / chroma_qp_offset=-5 / threads=8 / lookahead_threads=1 / sliced_threads=0 / nr=0 / decimate=1 / interlaced=0 / bluray_compat=0 / constrained_intra=0 / bframes=9 / b_pyramid=2 / b_adapt=1 / b_bias=0 / direct=3 / weightb=1 / open_gop=0 / weightp=2 / keyint=240 / keyint_min=23 / scenecut=40 / intra_refresh=0 / rc_lookahead=40 / rc=2pass / mbtree=0 / bitrate=2775 / ratetol=1.0 / qcomp=0.60 / qpmin=0 / qpmax=69 / qpstep=4 / cplxblur=20.0 / qblur=0.5 / vbv_maxrate=50000 / vbv_bufsize=65000 / nal_hrd=none / ip_ratio=1.40 / pb_ratio=1.30 / aq=1:0.90
Default : No
Forced : No


Audio
ID : 2
Format : AC-3
Format/Info : Audio Coding 3
Mode extension : CM (complete main)
Format settings, Endianness : Big
Codec ID : A_AC3
Duration : 1h 42mn
Bit rate mode : Constant
Bit rate : 640 Kbps
Channel(s) : 6 channels
Channel positions : Front: L C R, Side: L R, LFE
Sampling rate : 48.0 KHz
Bit depth : 16 bits
Compression mode : Lossy
Stream size : 470 MiB (19%)
Language : English
Default : Yes
Forced : No


Text
ID : 3
Format : UTF-8
Codec ID : S_TEXT/UTF8
Codec ID/Info : UTF-8 Plain Text
Language : English
Default : Yes
Forced : No


Menu
00:00:00.000 : en:00:00:00.000
00:10:26.376 : en:00:10:26.376
00:20:54.628 : en:00:20:54.628
00:31:15.290 : en:00:31:15.290
00:40:58.498 : en:00:40:58.498
00:50:50.714 : en:00:50:50.714
01:00:05.435 : en:01:00:05.435
01:09:51.813 : en:01:09:51.813
01:19:51.245 : en:01:19:51.245
01:31:07.295 : en:01:31:07.295
01:33:57.131 : en:01:33:57.131

SCREENS






DOWNLOADS:

UPLOADED,ZIPPYSHARE,DL.FREE.FR AND MORE
USE JDOWNLOADER TO DECRYPT LINKS!!

Code:



Pass:
Code: