300 (2006)





MOVIE:
Director: Zack Snyder
Writer:: Zack Snyder, Kurt Johnstad
Genres: Action | Fantasy | War
Country: USA
Release Date: 2006
Runtime: 117min
Ratings: 7,8/10 from 475 761 users


Plot:
In the Battle of Thermopylae of 480 BC an alliance of Greek city-states fought the invading Persian army in the mountain pass of Thermopylae. Vastly outnumbered, the Greeks held back the enemy in one of the most famous last stands of history. Persian King Xerxes lead a Army of well over 100,000 (Persian king Xerxes before war has about 170,000 army) men to Greece and was confronted by 300 Spartans, and several hundred Arcadians. Xerxes waited for 10 days for King Leonidas to surrender or withdraw left with no options he moved. The battle lasted for about 3 days and after which all 300 Spartans were killed. The Spartan defeat was not the one expected, as a local shepherd, named Ephialtes, defected to the Persians and informed Xerxes of a separate path through Thermopylae, which the Persians could use to outflank the Greeks.


CAST:
Gerard Butler - King Leonidas
Lena Headey - Queen Gorgo
Dominic West - Theron
David Wenham - Dilios
Vincent Regan - Captain
...


INFO:

SOURCE: BluRay
AUDIO1: English DD 5.1 @ 640 Kbps
AUDIO2: English OGG 2.0 @ 96 Kbps - commentary
SUBTITLES: English (UTF-8)
BITRATE: 2725 Kbps / 2pass / 12ref
ASPECT RATIO: 2.40
FRAME RATE: 23.976fps
VIDEO CODEC: x264
EXTENSIONS: mkv (Matroska)
RESOLUTION: 1280x528p
EXTRAS: Chapters
SIZE: 2,81GiB

x264 - mediainfo
General
Unique ID : 216822258266090026256810050786683627721 (0xA31E72AED87B1DB9BE49D32A388DA8C9)
Complete name : 300 2006 m720p BuRay AC3 x264-DomeLL.mkv
Format : Matroska
Format version : Version 2
File size : 2.81 GiB
Duration : 1h 56mn
Overall bit rate mode : Variable
Overall bit rate : 3 449 Kbps
Encoded date : UTC 2014-09-30 17:41:46
Writing application : mkvmerge v3.4.0 ('Rapunzel') built on May 15 2010 09:38:20
Writing library : libebml v0.8.0 + libmatroska v0.9.0


Video
ID : 1
Format : AVC
Format/Info : Advanced Video Codec
Format profile : High@L4.1
Format settings, CABAC : Yes
Format settings, ReFrames : 12 frames
Codec ID : V_MPEG4/ISO/AVC
Duration : 1h 56mn
Bit rate : 2 725 Kbps
Width : 1 280 pixels
Height : 528 pixels
Display aspect ratio : 2.40:1
Frame rate mode : Constant
Frame rate : 23.976 fps
Color space : YUV
Chroma subsampling : 4:2:0
Bit depth : 8 bits
Scan type : Progressive
Bits/(Pixel*Frame) : 0.168
Stream size : 2.15 GiB (77%)
Writing library : x264 core 129 r2230 1cffe9f
Encoding settings : cabac=1 / ref=12 / deblock=1:-3:-3 / analyse=0x3:0x133 / me=umh / subme=9 / psy=1 / psy_rd=1.00:0.05 / mixed_ref=1 / me_range=64 / chroma_me=1 / trellis=2 / 8x8dct=1 / cqm=0 / deadzone=21,11 / fast_pskip=0 / chroma_qp_offset=-5 / threads=8 / lookahead_threads=1 / sliced_threads=0 / nr=0 / decimate=1 / interlaced=0 / bluray_compat=0 / constrained_intra=0 / bframes=9 / b_pyramid=2 / b_adapt=1 / b_bias=0 / direct=3 / weightb=1 / open_gop=0 / weightp=2 / keyint=240 / keyint_min=23 / scenecut=40 / intra_refresh=0 / rc_lookahead=40 / rc=2pass / mbtree=0 / bitrate=2725 / ratetol=1.0 / qcomp=0.60 / qpmin=0 / qpmax=69 / qpstep=4 / cplxblur=20.0 / qblur=0.5 / vbv_maxrate=50000 / vbv_bufsize=65000 / nal_hrd=none / ip_ratio=1.40 / pb_ratio=1.30 / aq=1:0.90
Default : No
Forced : No


Audio #1
ID : 2
Format : AC-3
Format/Info : Audio Coding 3
Mode extension : CM (complete main)
Format settings, Endianness : Big
Codec ID : A_AC3
Duration : 1h 56mn
Bit rate mode : Constant
Bit rate : 640 Kbps
Channel(s) : 6 channels
Channel positions : Front: L C R, Side: L R, LFE
Sampling rate : 48.0 KHz
Bit depth : 16 bits
Compression mode : Lossy
Stream size : 534 MiB (19%)
Language : English
Default : Yes
Forced : No


Audio #2
ID : 3
Format : Vorbis
Format settings, Floor : 1
Codec ID : A_VORBIS
Duration : 1h 56mn
Bit rate mode : Variable
Bit rate : 96.0 Kbps
Channel(s) : 2 channels
Sampling rate : 48.0 KHz
Compression mode : Lossy
Stream size : 80.1 MiB (3%)
Writing library : aoTuV 20110424 (UTC 2011-04-24)
Language : English
Default : No
Forced : No


Text
ID : 4
Format : UTF-8
Codec ID : S_TEXT/UTF8
Codec ID/Info : UTF-8 Plain Text
Language : English
Default : Yes
Forced : No


Menu
00:00:00.000 : en:00:00:00.000
00:05:16.983 : en:00:05:16.983
00:10:23.289 : en:00:10:23.289
00:13:16.796 : en:00:13:16.796
00:16:52.178 : en:00:16:52.178
00:19:44.350 : en:00:19:44.350
00:22:28.347 : en:00:22:28.347
00:27:03.622 : en:00:27:03.622
00:29:16.254 : en:00:29:16.254
00:33:17.829 : en:00:33:17.829
00:35:06.771 : en:00:35:06.771
00:37:49.434 : en:00:37:49.434
00:40:46.277 : en:00:40:46.277
00:44:10.314 : en:00:44:10.314
00:49:17.288 : en:00:49:17.288
00:52:46.330 : en:00:52:46.330
00:55:33.664 : en:00:55:33.664
01:01:40.864 : en:01:01:40.864
01:05:20.750 : en:01:05:20.750
01:08:42.952 : en:01:08:42.952
01:12:43.192 : en:01:12:43.192
01:15:50.379 : en:01:15:50.379
01:18:38.380 : en:01:18:38.380
01:22:20.936 : en:01:22:20.936
01:26:43.532 : en:01:26:43.532
01:29:11.513 : en:01:29:11.513
01:33:59.217 : en:01:33:59.217
01:38:54.595 : en:01:38:54.595
01:43:26.200 : en:01:43:26.200
01:49:03.537 : en:01:49:03.537

SCREENS






DOWNLOADS:

UPLOADED,ZIPPYSHARE,DL.FREE.FR AND MORE
USE JDOWNLOADER TO DECRYPT LINKS!!

Code:



Pass:
Code: