X-Men: Days of Future Past (2014)





MOVIE:
Director: Bryan Singer
Writer:: Simon Kinberg (screenplay), Jane Goldman
Genres: Action | Adventure | Sci-F
Country: USA
Release Date: 2014
Runtime: 131min
Ratings: 8,3/10 from 242 544 users


Plot:
Sentinels, robots that were created for the purpose of hunting down mutants were released in 1973. 50 years later the Sentinels would also hunt humans who aid mutants. Charles Xavier and his X-Men try their best to deal with the Sentinels but they are able to adapt and deal with all mutant abilities. Charles decides to go back in time and change things. He asks Kitty Pryde who can send a person's consciousness into the person's past to send him but she can only send someone back a few weeks because if she sends someone back further it could harm them. So Logan decides to go back himself because he might be able to withstand it. So Charles tells him that it's Mystique who's responsible because when she learned about the Sentinels she sought out Bolivar Trask the man who created them and killed him. She would be caught and studied and her ability to change was somehow added to the Sentinels which is why they can adapt. Logan must go to the younger Charles and ask him to help; problem is...


CAST:
Hugh Jackman - Logan / Wolverine
James McAvoy - Charles Xavier
Michael Fassbender - Erik Lehnsherr
Jennifer Lawrence - Raven / Mystique
Halle Berry - Storm
....




INFO:

SOURCE: BluRay
AUDIO1: English DD 5.1 @ 640 Kbps
SUBTITLES: English (UTF-8) & (SSA)
BITRATE: 2728 Kbps / 2pass / 12ref
ASPECT RATIO: 2.40
FRAME RATE: 23.976fps
VIDEO CODEC: x264
EXTENSIONS: mkv (Matroska)
RESOLUTION: 1280x528p
EXTRAS: Chapters
SIZE: 3,1GiB

x264 - mediainfo
General
Unique ID : 170188341911658061221725728226139039768 (0x8009151755FD6D939E98E7BC39F1E818)
Complete name : X-Men Days of Future Past 2014 m720p BluRay AC3 x264-DomeLL.mkv
Format : Matroska
Format version : Version 2
File size : 3.10 GiB
Duration : 2h 11mn
Overall bit rate : 3 370 Kbps
Encoded date : UTC 2014-10-03 13:27:31
Writing application : mkvmerge v3.4.0 ('Rapunzel') built on May 15 2010 09:38:20
Writing library : libebml v0.8.0 + libmatroska v0.9.0


Video
ID : 1
Format : AVC
Format/Info : Advanced Video Codec
Format profile : High@L4.1
Format settings, CABAC : Yes
Format settings, ReFrames : 12 frames
Codec ID : V_MPEG4/ISO/AVC
Duration : 2h 11mn
Bit rate : 2 728 Kbps
Width : 1 280 pixels
Height : 528 pixels
Display aspect ratio : 2.40:1
Frame rate mode : Constant
Frame rate : 23.976 fps
Color space : YUV
Chroma subsampling : 4:2:0
Bit depth : 8 bits
Scan type : Progressive
Bits/(Pixel*Frame) : 0.168
Stream size : 2.45 GiB (79%)
Writing library : x264 core 129 r2230 1cffe9f
Encoding settings : cabac=1 / ref=12 / deblock=1:-3:-3 / analyse=0x3:0x133 / me=umh / subme=9 / psy=1 / psy_rd=1.00:0.05 / mixed_ref=1 / me_range=64 / chroma_me=1 / trellis=2 / 8x8dct=1 / cqm=0 / deadzone=21,11 / fast_pskip=0 / chroma_qp_offset=-5 / threads=8 / lookahead_threads=1 / sliced_threads=0 / nr=0 / decimate=1 / interlaced=0 / bluray_compat=0 / constrained_intra=0 / bframes=9 / b_pyramid=2 / b_adapt=1 / b_bias=0 / direct=3 / weightb=1 / open_gop=0 / weightp=2 / keyint=240 / keyint_min=23 / scenecut=40 / intra_refresh=0 / rc_lookahead=40 / rc=2pass / mbtree=0 / bitrate=2728 / ratetol=1.0 / qcomp=0.60 / qpmin=0 / qpmax=69 / qpstep=4 / cplxblur=20.0 / qblur=0.5 / vbv_maxrate=50000 / vbv_bufsize=65000 / nal_hrd=none / ip_ratio=1.40 / pb_ratio=1.30 / aq=1:0.90
Default : No
Forced : No


Audio
ID : 2
Format : AC-3
Format/Info : Audio Coding 3
Mode extension : CM (complete main)
Format settings, Endianness : Big
Codec ID : A_AC3
Duration : 2h 11mn
Bit rate mode : Constant
Bit rate : 640 Kbps
Channel(s) : 6 channels
Channel positions : Front: L C R, Side: L R, LFE
Sampling rate : 48.0 KHz
Bit depth : 16 bits
Compression mode : Lossy
Stream size : 602 MiB (19%)
Language : English
Default : Yes
Forced : No


Text #1
ID : 3
Format : UTF-8
Codec ID : S_TEXT/UTF8
Codec ID/Info : UTF-8 Plain Text
Language : English
Default : Yes
Forced : No


Text #2
ID : 4
Format : SSA
Codec ID : S_TEXT/SSA
Codec ID/Info : Sub Station Alpha
Compression mode : Lossless
Language : English
Default : No
Forced : No


Menu
00:00:00.000 : en:00:00:00.000
00:03:33.338 : en:00:03:33.338
00:08:00.689 : en:00:08:00.689
00:10:28.628 : en:00:10:28.628
00:13:58.046 : en:00:13:58.046
00:17:02.021 : en:00:17:02.021
00:20:16.090 : en:00:20:16.090
00:22:11.330 : en:00:22:11.330
00:26:37.888 : en:00:26:37.888
00:30:32.039 : en:00:30:32.039
00:34:29.776 : en:00:34:29.776
00:36:00.992 : en:00:36:00.992
00:38:18.087 : en:00:38:18.087
00:40:37.101 : en:00:40:37.101
00:45:53.793 : en:00:45:53.793
00:48:53.848 : en:00:48:53.848
00:51:58.157 : en:00:51:58.157
00:54:43.113 : en:00:54:43.113
00:57:51.426 : en:00:57:51.426
01:00:48.186 : en:01:00:48.186
01:03:26.594 : en:01:03:26.594
01:07:09.567 : en:01:07:09.567
01:09:43.596 : en:01:09:43.596
01:13:11.470 : en:01:13:11.470
01:15:31.861 : en:01:15:31.861
01:17:27.726 : en:01:17:27.726
01:19:30.099 : en:01:19:30.099
01:24:50.711 : en:01:24:50.711
01:26:58.255 : en:01:26:58.255
01:31:04.250 : en:01:31:04.250
01:34:03.680 : en:01:34:03.680
01:37:33.181 : en:01:37:33.181
01:41:54.817 : en:01:41:54.817
01:44:52.995 : en:01:44:52.995
01:47:19.808 : en:01:47:19.808
01:51:29.766 : en:01:51:29.766
01:56:42.746 : en:01:56:42.746
02:00:12.414 : en:02:00:12.414
02:02:34.973 : en:02:02:34.973
02:10:31.907 : en:02:10:31.907

SCREENS







DOWNLOADS:

UPLOADED,ZIPPYSHARE,DL.FREE.FR AND MORE
USE JDOWNLOADER TO DECRYPT LINKS!!

Code:



Pass:
Code: