************************************************** **********
Chef (2014) 1080p BluRay x264 SPARKS
File Size: 7.94 GiB

************************************************** **********



INFO:

General
Complete name : F:\Chef.2014.1080p.BluRay.x264-SPARKS.mkv
Format : Matroska
Format version : Version 4 / Version 2
File size : 7.94 GiB
Duration : 1h 49mn
Overall bit rate : 10.3 Mbps
Encoded date : UTC 2014-09-04 14:42:43
Writing application : mkvmerge v6.2.0 ('Promised Land') built on Apr 28 2013 12:22:01
Writing library : libebml v1.3.0 + libmatroska v1.4.0

Video
ID : 1
Format : AVC
Format/Info : Advanced Video Codec
Format profile : High@L4.1
Format settings, CABAC : Yes
Format settings, ReFrames : 5 frames
Codec ID : V_MPEG4/ISO/AVC
Duration : 1h 49mn
Bit rate : 8 835 Kbps
Width : 1 920 pixels
Height : 800 pixels
Display aspect ratio : 2.40:1
Frame rate mode : Constant
Frame rate : 25.000 fps
Color space : YUV
Chroma subsampling : 4:2:0
Bit depth : 8 bits
Scan type : Progressive
Bits/(Pixel*Frame) : 0.230
Stream size : 6.62 GiB (83%)
Writing library : x264 core 142 r2453 ea0ca51
Language : English
Default : Yes
Forced : No

Audio
ID : 2
Format : DTS
Format/Info : Digital Theater Systems
Mode : 16
Format settings, Endianness : Big
Codec ID : A_DTS
Duration : 1h 49mn
Bit rate mode : Constant
Bit rate : 1 509 Kbps
Channel(s) : 6 channels
Channel positions : Front: L C R, Side: L R, LFE
Sampling rate : 48.0 KHz
Bit depth : 24 bits
Compression mode : Lossy
Stream size : 1.16 GiB (15%)
Language : English
Default : Yes
Forced : No
iMDB:
Code:


Single Extraction | No Password | Interchangeable Links: | Working 100% |

Code: