Results 1 to 1 of 1
  1. #1
    Medium User
    This is HDmanHD's Country Flag

    HDmanHD's Avatar
    Join Date
    Aug 2014
    Posts
    144
    Total 'Thanks' Received by This User
    For This Post
    0

    Total
    3
    Rep Power
    0

    UL Christiane F. - Wir Kinder vom Bahnhof Zoo (1981) 720p BluRay - LEON

    Christiane F. - Wir Kinder vom Bahnhof Zoo (1981) 720p BluRay - LEON





    This movie portrays the drug scene in Berlin in the 1970s, following tape recordings of Christiane F. 14-year-old Christiane lives with her mother and little sister in a typical multi-story apartment building in Berlin. She's fascinated by 'The Sound', a new disco with the most modern equipment. Although legally she's too young, she asks a friend to take her. There, she meets Detlef, who's in a clique where everybody's on drugs. Step by step she gets drawn deeper into the scene.

    Format : Matroska
    Format version : Version 2
    File size : 7.51 GiB
    Duration : 2h 10mn
    Overall bit rate : 8 223 Kbps
    Movie name : Christiane F. - Wir Kinder vom Bahnhof Zoo (1981)Custom Leon 345
    Encoded date : UTC 2014-08-25 13:58:11
    Writing application : mkvmerge v5.7.0 ('The Whirlwind') built on Jul 8 2012 20:08:51
    Writing library : libebml v1.2.3 + libmatroska v1.3.0

    Video
    ID : 1
    Format : AVC
    Format/Info : Advanced Video Codec
    Format profile : High@L4.1
    Format settings, CABAC : Yes
    Format settings, ReFrames : 4 frames
    Codec ID : V_MPEG4/ISO/AVC
    Duration : 2h 10mn
    Bit rate : 6 000 Kbps
    Width : 1 280 pixels
    Height : 720 pixels
    Display aspect ratio : 16:9
    Frame rate mode : Constant
    Frame rate : 23.976 fps
    Color space : YUV
    Chroma subsampling : 4:2:0
    Bit depth : 8 bits
    Scan type : Progressive
    Bits/(Pixel*Frame) : 0.272
    Stream size : 5.27 GiB (70%)
    Title : Rip by Leon 345
    Writing library : x264 core 128 r2216
    Default : Yes
    Forced : No

    Audio #1
    ID : 2
    Format : AC-3
    Format/Info : Audio Coding 3
    Mode extension : CM (complete main)
    Format settings, Endianness : Big
    Codec ID : A_AC3
    Duration : 2h 10mn
    Bit rate mode : Constant
    Bit rate : 640 Kbps
    Channel(s) : 6 channels
    Channel positions : Front: L C R, Side: L R, LFE
    Sampling rate : 48.0 KHz
    Bit depth : 16 bits
    Compression mode : Lossy
    Stream size : 599 MiB (8%)
    Title : AC3 5.1 Lektor PL Custom Leon 345
    Language : Polish
    Default : Yes
    Forced : Yes

    Audio #2
    ID : 3
    Format : AC-3
    Format/Info : Audio Coding 3
    Mode extension : CM (complete main)
    Format settings, Endianness : Big
    Codec ID : A_AC3
    Duration : 2h 10mn
    Bit rate mode : Constant
    Bit rate : 256 Kbps
    Channel(s) : 2 channels
    Channel positions : Front: L R
    Sampling rate : 48.0 KHz
    Bit depth : 16 bits
    Compression mode : Lossy
    Stream size : 240 MiB (3%)
    Title : AC3 2.0 Lektor PL
    Language : Polish
    Default : No
    Forced : No

    Audio #3
    ID : 4
    Format : AC-3
    Format/Info : Audio Coding 3
    Mode extension : CM (complete main)
    Format settings, Endianness : Big
    Codec ID : A_AC3
    Duration : 2h 10mn
    Bit rate mode : Constant
    Bit rate : 640 Kbps
    Channel(s) : 6 channels
    Channel positions : Front: L C R, Side: L R, LFE
    Sampling rate : 48.0 KHz
    Bit depth : 16 bits
    Compression mode : Lossy
    Stream size : 599 MiB (8%)
    Title : AC3 5.1
    Language : German
    Default : No
    Forced : No

    Audio #4
    ID : 5
    Format : DTS
    Format/Info : Digital Theater Systems
    Mode : 16
    Format settings, Endianness : Big
    Codec ID : A_DTS
    Duration : 2h 10mn
    Bit rate mode : Constant
    Bit rate : 755 Kbps
    Channel(s) : 6 channels
    Channel positions : Front: L C R, Side: L R, LFE
    Sampling rate : 48.0 KHz
    Bit depth : 24 bits
    Compression mode : Lossy
    Stream size : 706 MiB (9%)
    Title : DTS 5.1
    Language : German
    Default : No
    Forced : No

    Text #1
    ID : 6
    Format : UTF-8
    Codec ID : S_TEXT/UTF8
    Codec ID/Info : UTF-8 Plain Text
    Language : Polish
    Default : No
    Forced : No

    Text #2
    ID : 7
    Format : UTF-8
    Codec ID : S_TEXT/UTF8
    Codec ID/Info : UTF-8 Plain Text
    Language : English
    Default : No
    Forced : No


    Code:
    Genres: Drama, Biography, Music

    Languages: German , Polish

    Subtitles: English, Polish

    Other subtitles:
    Code:
    Code:
    Last edited by HDmanHD; 08-28-2014 at 10:41 AM.
    Reply With Quote Reply With Quote
    Send PM  




Similar Threads

  1. Replies: 1
    Last Post: 05-27-2016, 09:49 PM
  2. [MULTI] Leon Russell - Gimme Shelter! The Best of Leon Russell
    By wikidomo in forum Graveyard
    Replies: 0
    Last Post: 02-16-2014, 08:02 AM
  3. [MULTI] Robots Dont Sleep - Club Bahnhof Ehrenfeld Cologne (2013)HD 720p
    By galexandersHD in forum Graveyard
    Replies: 0
    Last Post: 04-29-2013, 08:44 AM
  4. Replies: 0
    Last Post: 02-16-2013, 11:05 AM
  5. Replies: 0
    Last Post: 12-16-2012, 02:06 AM

Tags for this Thread

Bookmarks

Posting Permissions

  • You may not post new threads
  • You may not post replies
  • You may not post attachments
  • You may not edit your posts
  •