Return Of The Living Dead 1 - 3 (1985-1993) [MoviePack 720p]



When a bumbling pair of employees at a medical supply warehouse accidentally release a deadly gas into the air, the vapors cause the dead to re-animate as they go on a rampage through Louisville, Kentucky seeking their favorite food, brains.

Code:
General
Complete name : Return Of The Living Dead 1 - 3 [720p]/The Return of the Living Dead 1985 720P BRRIP XVID AC3-MAJESTiC.avi
Format : AVI
Format/Info : Audio Video Interleave
Format profile : OpenDML
File size : 2.44 GiB
Duration : 1h 30mn
Overall bit rate : 3 849 Kbps
Writing application : VirtualDubMod 1.5.10.2 (build 2540/release)
Writing library : VirtualDubMod build 2540/release

Video
ID : 0
Format : MPEG-4 Visual
Format profile : Advanced Simple@L5
Format settings, BVOP : 2
Format settings, QPel : No
Format settings, GMC : No warppoints
Format settings, Matrix : Default (H.263)
Muxing mode : Packed bitstream
Codec ID : XVID
Codec ID/Hint : XviD
Duration : 1h 30mn
Bit rate : 3 389 Kbps
Width : 1 280 pixels
Height : 688 pixels
Display aspect ratio : 1.85:1
Frame rate : 23.976 fps
Color space : YUV
Chroma subsampling : 4:2:0
Bit depth : 8 bits
Scan type : Progressive
Compression mode : Lossy
Bits/(Pixel*Frame) : 0.161
Stream size : 2.15 GiB (88%)
Writing library : XviD 1.2.1 (UTC 2008-12-04)

Audio
ID : 1
Format : AC-3
Format/Info : Audio Coding 3
Mode extension : CM (complete main)
Format settings, Endianness : Big
Codec ID : 2000
Duration : 1h 30mn
Bit rate mode : Constant
Bit rate : 448 Kbps
Channel count : 6 channels
Channel positions : Front: L C R, Side: L R, LFE
Sampling rate : 48.0 KHz
Bit depth : 16 bits
Compression mode : Lossy
Stream size : 291 MiB (12%)
Alignment : Split accross interleaves
Interleave, duration : 42 ms (1.00 video frame)
Interleave, preload duration : 500 ms




In this first sequel to The Return of the Living Dead, a group of kids discover one of the drums containing a rotting corpse and release the 2-4-5 Trioxen gas into the air, causing the dead to once again rise from the grave and seek out brains.

Code:
General
Complete name : Return Of The Living Dead 1 - 3 [720p]/Return of the Living Dead Part II 1988 720p WEB-DL AAC2 0 H 264-BS.mkv
Format : Matroska
Format version : Version 4 / Version 2
File size : 2.50 GiB
Duration : 1h 29mn
Overall bit rate : 3 997 Kbps
Encoded date : UTC 2013-01-26 19:30:26
Writing application : mkvmerge v6.0.0 ('Coming Up For Air') built on Jan 20 2013 09:52:00
Writing library : libebml v1.3.0 + libmatroska v1.4.0

Video
ID : 1
Format : AVC
Format/Info : Advanced Video Codec
Format profile : High@L3.1
Format settings, CABAC : No
Format settings, ReFrames : 2 frames
Format settings, GOP : N=1
Codec ID : V_MPEG4/ISO/AVC
Duration : 1h 29mn
Width : 1 272 pixels
Height : 720 pixels
Display aspect ratio : 16:9
Frame rate mode : Constant
Frame rate : 23.976 fps
Color space : YUV
Chroma subsampling : 4:2:0
Bit depth : 8 bits
Scan type : Progressive
Language : English
Default : Yes
Forced : No
Color primaries : BT.709
Transfer characteristics : BT.709
Matrix coefficients : BT.709

Audio
ID : 2
Format : AAC
Format/Info : Advanced Audio Codec
Format profile : LC
Codec ID : A_AAC
Duration : 1h 29mn
Channel count : 2 channels
Channel positions : Front: L R
Sampling rate : 48.0 KHz
Compression mode : Lossy
Language : English
Default : Yes
Forced : No




Colonel Reynolds and his group of government scientists continue their work on re-animating the dead for military use. His son Curt and his girlfriend Julie use Dad's security pass to sneak in and watch the proceedings. Later when father and son have a disagreement, Curt and Julie take off on a motorcycle and Julie is killed in an accident. Grief-stricken, Curt takes her body to the lab and brings her back to life. Curt must help Julie deal with her new existence as military agents and local gang members try to find them.

Code:
General
Complete name : Return Of The Living Dead 1 - 3 [720p]/Return Of The Living Dead 3 1993 720p BluRay x264-LiViDiTY.mkv
Format : Matroska
Format version : Version 2
File size : 3.28 GiB
Duration : 1h 32mn
Overall bit rate : 5 050 Kbps
Movie name : Return Of The Living Dead III 720P
Encoded date : UTC 2012-03-13 21:54:17
Writing application : mkvmerge v5.3.0 ('I could have danced') built on Feb 9 2012 10:38:07
Writing library : libebml v1.2.3 + libmatroska v1.3.0

Video
ID : 1
Format : AVC
Format/Info : Advanced Video Codec
Format profile : High@L4.1
Format settings, CABAC : Yes
Format settings, ReFrames : 5 frames
Codec ID : V_MPEG4/ISO/AVC
Duration : 1h 32mn
Bit rate : 4 857 Kbps
Width : 1 280 pixels
Height : 720 pixels
Display aspect ratio : 16:9
Frame rate mode : Constant
Frame rate : 25.000 fps
Color space : YUV
Chroma subsampling : 4:2:0
Bit depth : 8 bits
Scan type : Progressive
Bits/(Pixel*Frame) : 0.211
Stream size : 3.09 GiB (94%)
Forced : No
Audio
ID : 2
Format : AC-3
Format/Info : Audio Coding 3
Mode extension : CM (complete main)
Format settings, Endianness : Big
Codec ID : A_AC3
Duration : 1h 32mn
Bit rate mode : Constant
Bit rate : 192 Kbps
Channel count : 2 channels
Channel positions : Front: L R
Sampling rate : 48.0 KHz
Bit depth : 16 bits
Compression mode : Lossy
Stream size : 128 MiB (4%)
Language : English
Default : Yes
Forced : No

---------------------------------------------------

Subtitles:
Code:
Download:
Code: