The Pink Panther Trilogy (1963-2009) 1080p - iCandy




The Pink Panther (1963) 1080p BD9
Code:


General

Format : BDAV
Format/Info : Blu-ray Video
File size : 7.94 GiB
Duration : 1h 55mn
Overall bit rate mode : Variable
Overall bit rate : 9 872 Kbps
Maximum Overall bit rate : 35.5 Mbps

Video
ID : 4113 (0x1011)
Menu ID : 1 (0x1)
Format : AVC
Format/Info : Advanced Video Codec
Format profile : High@L4.1
Format settings, CABAC : Yes
Format settings, ReFrames : 3 frames
Codec ID : 27
Duration : 1h 55mn
Bit rate mode : Variable
Bit rate : 8 508 Kbps
Maximum bit rate : 14.0 Mbps
Width : 1 920 pixels
Height : 1 080 pixels
Display aspect ratio : 16:9
Frame rate : 23.976 fps
Color space : YUV
Chroma subsampling : 4:2:0
Bit depth : 8 bits
Scan type : Progressive
Bits/(Pixel*Frame) : 0.171
Stream size : 7.09 GiB (89%)
Writing library : x264 core 125 r2208 d9d2288


Audio
ID : 4352 (0x1100)
Menu ID : 1 (0x1)
Format : AC-3
Format/Info : Audio Coding 3
Mode extension : CM (complete main)
Format settings, Endianness : Big
Codec ID : 129
Duration : 1h 55mn
Bit rate mode : Constant
Bit rate : 640 Kbps
Channel(s) : 6 channels
Channel positions : Front: L C R, Side: L R, LFE
Sampling rate : 48.0 KHz
Bit depth : 16 bits
Compression mode : Lossy
Stream size : 527 MiB (6%)
Language : English

Text
Format : PGS
Language : English, Portuguese, Spanish, German, French, Chinese

---------------
Pink Panther (2006) 1080p BD9
Code:

General
Format : BDAV
Format/Info : Blu-ray Video
File size : 7.90 GiB
Duration : 1h 32mn
Overall bit rate mode : Variable
Overall bit rate : 12.2 Mbps
Maximum Overall bit rate : 35.5 Mbps

Video
ID : 4113 (0x1011)
Menu ID : 1 (0x1)
Format : AVC
Format/Info : Advanced Video Codec
Format profile : High@L4.1
Format settings, CABAC : Yes
Format settings, ReFrames : 3 frames
Codec ID : 27
Duration : 1h 32mn
Bit rate mode : Variable
Bit rate : 11.0 Mbps
Nominal bit rate : 10.1 Mbps
Maximum bit rate : 17.0 Mbps
Width : 1 920 pixels
Height : 1 080 pixels
Display aspect ratio : 16:9
Frame rate : 23.976 fps
Color space : YUV
Chroma subsampling : 4:2:0
Bit depth : 8 bits
Scan type : Progressive
Bits/(Pixel*Frame) : 0.221
Stream size : 7.12 GiB (90%)
Writing library : x264 core 114 r1924 08d04a4

Audio
ID : 4352 (0x1100)
Menu ID : 1 (0x1)
Format : AC-3
Format/Info : Audio Coding 3
Mode extension : CM (complete main)
Format settings, Endianness : Big
Codec ID : 129
Duration : 1h 32mn
Bit rate mode : Constant
Bit rate : 640 Kbps
Channel(s) : 6 channels
Channel positions : Front: L C R, Side: L R, LFE
Sampling rate : 48.0 KHz
Bit depth : 16 bits
Compression mode : Lossy
Stream size : 425 MiB (5%)
Language : English

Text
Format : PGS
Language : English, Italian, Arabic, Bulgarian, Czech, Croatian, Danish, Estonian, Finnish, Greek, Hebrew, Hindi, Icelandic, Lithuanian, Norwegian, Polish, Romanian, Serbian, Slovenian, Swedish, Turkish, Ukrainian, Russian

-------------------------

The Pink Panther 2 (2009) 1080p BD9
Code:

General
AC3.AVCHD.iCandy
Format : BDAV
Format/Info : Blu-ray Video
File size : 7.90 GiB
Duration : 1h 32mn
Overall bit rate mode : Variable
Overall bit rate : 12.3 Mbps
Maximum Overall bit rate : 35.5 Mbps

Video
ID : 4113 (0x1011)
Menu ID : 1 (0x1)
Format : AVC
Format/Info : Advanced Video Codec
Format profile : High@L4.1
Format settings, CABAC : Yes
Format settings, ReFrames : 3 frames
Codec ID : 27
Duration : 1h 32mn
Bit rate mode : Variable
Bit rate : 11.1 Mbps
Nominal bit rate : 10.2 Mbps
Maximum bit rate : 17.0 Mbps
Width : 1 920 pixels
Height : 1 080 pixels
Display aspect ratio : 16:9
Frame rate : 23.976 fps
Color space : YUV
Chroma subsampling : 4:2:0
Bit depth : 8 bits
Scan type : Progressive
Bits/(Pixel*Frame) : 0.223
Stream size : 7.13 GiB (90%)
Writing library : x264 core 125 r2200 999b753


Audio
ID : 4352 (0x1100)
Menu ID : 1 (0x1)
Format : AC-3
Format/Info : Audio Coding 3
Mode extension : CM (complete main)
Format settings, Endianness : Big
Codec ID : 129
Duration : 1h 32mn
Bit rate mode : Constant
Bit rate : 640 Kbps
Channel(s) : 6 channels
Channel positions : Front: L C R, Side: L R, LFE
Sampling rate : 48.0 KHz
Bit depth : 16 bits
Compression mode : Lossy
Stream size : 421 MiB (5%)
Language : English

Text
Format : PGS
Language: English, Italian, Arabic, Bulgarian, Czech, Croatian, Danish, Estonian, Finnish, Greek, Hebrew, Hindi, Icelandic, Lithuanian, Norwegian, Polish, Romanian, Serbian, Slovenian, Swedish, Turkish, Ukrainian, Russian

--------------------------

DOWNLOAD:
Code: