************************************************** **********
Captain America The First Avenger (2011) 1080p Bluray DTS 1x264 RUXi
File Size: 9.05 GiB

************************************************** **********



INFO:

General
Complete name : Captain America The First Avenger (2011) Bluray 1080p DTS 10Bit-x264 - RUXi.mkv
Format : Matroska
Format version : Version 4 / Version 2
File size : 9.05 GiB
Duration : 2h 4mn
Overall bit rate : 10.4 Mbps
Movie name : Captain America The First Avenger (2011) Bluray 1080p AAC 10Bit-x264 - Rhyging
Encoded date : UTC 2014-04-11 12:48:38
Writing application : mkvmerge v6.0.0 ('Coming Up For Air') built on Jan 20 2013 09:52:00
Writing library : libebml v1.3.0 + libmatroska v1.4.0

Video
ID : 1
Format : AVC
Format/Info : Advanced Video Codec
Format profile : High 10@L4.1
Format settings, CABAC : Yes
Format settings, ReFrames : 5 frames
Codec ID : V_MPEG4/ISO/AVC
Duration : 2h 4mn
Bit rate : 8 926 Kbps
Width : 1 920 pixels
Height : 816 pixels
Display aspect ratio : 2.35:1
Frame rate mode : Constant
Frame rate : 23.976 fps
Color space : YUV
Chroma subsampling : 4:2:0
Bit depth : 10 bits
Scan type : Progressive
Bits/(Pixel*Frame) : 0.238
Stream size : 7.56 GiB (84%)
Writing library : x264 core 135 r2345 f0c1c53
Default : Yes
Forced : No

Audio
ID : 3
Format : DTS
Format/Info : Digital Theater Systems
Mode : 16
Format settings, Endianness : Big
Codec ID : A_DTS
Duration : 2h 4mn
Bit rate mode : Constant
Bit rate : 1 509 Kbps
Channel(s) : 6 channels
Channel positions : Front: L C R, Side: L R, LFE
Sampling rate : 48.0 KHz
Bit depth : 24 bits
Compression mode : Lossy
Stream size : 1.31 GiB (14%)
Default : Yes
Forced : No
iMDB:
Code:






Single Extraction | No Password | Interchangeable Links: | Working 100% |

Code: