Results 1 to 1 of 1
  1. #1
    Active Member
    This is Domell1's Country Flag

    Domell1's Avatar
    Join Date
    Jan 2013
    Posts
    210
    Total 'Thanks' Received by This User
    For This Post
    0

    Total
    28
    Rep Power
    9

    MULTI The Transporter 3 2008 m720p BluRay AC3 x264-MiMiK

    The Transporter 3 (2008)



    MOVIE:[/center]
    Director: Olivier Megaton
    Writer:: Luc Besson, Robert Mark Kamen,
    Genres: Action | Crime | Thriller
    Country: USA, France
    Release Date: 2008
    Runtime: 104min
    Ratings: 6,0/10 from 88 274 users


    Plot:
    Toxic waste bubbles in a ship waiting permission to dock in Odessa. Frank Martin turns down a job in Marseilles, referring it to a pal. A short time later, the pal, wounded by gunfire, crashes his car into Frank's living room and dies, leaving a young woman in the back seat. The employer of the dead man shows up, forces Frank to take the job, snaps a bracelet on his wrist that will explode if Frank gets more than 75 feet from his car, and sends Frank on a journey east with the young woman and a trunk full of something. She's Valentina, nearly mute. Can Frank figure out what's going on, deliver the package, and escape alive? And what does the ship have to do with it?


    CAST:
    Jason Statham - Frank Martin
    Natalya Rudakova - Valentina
    François Berléand - Tarconi
    Robert Knepper - Johnson
    Jeroen Krabbé - Leonid Vasilev
    Alex Kobold - Leonid's Aide
    David Atrakchi - Malcom Manville
    Yann Sundberg - Flag


    INFO:

    SOURCE: BluRay
    AUDIO1: English AC3 5.1 640Kbps
    AUDIO1: English OGG 2.0 ~ 80 Kbps
    SUBTITLES: English (UTF-8)
    BITRATE: 2730 Kbps / 2pass / 12ref
    ASPECT RATIO: 2.35
    FRAME RATE: 23.967fps
    VIDEO CODEC: x264
    EXTENSIONS: mkv (Matroska)
    RESOLUTION: 1280x544p
    EXTRAS: Chapters
    SIZE: 2,50GiB

    x264 - mediainfo
    General
    Unique ID : 248360893425145031917475435894756906172 (0xBAD89173577CB0EC984692508C0894BC)
    Complete name :The Transporter 3 2008 m720p BluRay AC3 x264-MiMiK.mkv
    Format : Matroska
    Format version : Version 4 / Version 2
    File size : 2.50 GiB
    Duration : 1h 43mn
    Overall bit rate mode : Variable
    Overall bit rate : 3 438 Kbps
    Encoded date : UTC 2014-04-18 21:24:55
    Writing application : mkvmerge v6.8.0 ('Theme for Great Cities') 64bit built on Mar 2 2014 21:34:26
    Writing library : libebml v1.3.0 + libmatroska v1.4.1


    Video
    ID : 1
    Format : AVC
    Format/Info : Advanced Video Codec
    Format profile : High@L4.1
    Format settings, CABAC : Yes
    Format settings, ReFrames : 12 frames
    Codec ID : V_MPEG4/ISO/AVC
    Duration : 1h 43mn
    Bit rate : 2 730 Kbps
    Width : 1 280 pixels
    Height : 544 pixels
    Display aspect ratio : 2.35:1
    Frame rate mode : Constant
    Frame rate : 23.976 fps
    Color space : YUV
    Chroma subsampling : 4:2:0
    Bit depth : 8 bits
    Scan type : Progressive
    Bits/(Pixel*Frame) : 0.164
    Stream size : 1.92 GiB (77%)
    Writing library : x264 core 129 r2230 1cffe9f
    Encoding settings : cabac=1 / ref=12 / deblock=1:-3:-3 / analyse=0x3:0x133 / me=umh / subme=9 / psy=1 / psy_rd=1.00:0.05 / mixed_ref=1 / me_range=64 / chroma_me=1 / trellis=2 / 8x8dct=1 / cqm=0 / deadzone=21,11 / fast_pskip=0 / chroma_qp_offset=-3 / threads=8 / lookahead_threads=1 / sliced_threads=0 / nr=0 / decimate=1 / interlaced=0 / bluray_compat=0 / constrained_intra=0 / bframes=9 / b_pyramid=2 / b_adapt=1 / b_bias=0 / direct=3 / weightb=1 / open_gop=0 / weightp=2 / keyint=240 / keyint_min=23 / scenecut=40 / intra_refresh=0 / rc_lookahead=40 / rc=2pass / mbtree=0 / bitrate=2730 / ratetol=1.0 / qcomp=0.60 / qpmin=0 / qpmax=69 / qpstep=4 / cplxblur=20.0 / qblur=0.5 / vbv_maxrate=50000 / vbv_bufsize=65000 / nal_hrd=none / ip_ratio=1.40 / pb_ratio=1.30 / aq=1:0.90
    Default : Yes
    Forced : No


    Audio #1
    ID : 2
    Format : AC-3
    Format/Info : Audio Coding 3
    Mode extension : CM (complete main)
    Format settings, Endianness : Big
    Codec ID : A_AC3
    Duration : 1h 43mn
    Bit rate mode : Constant
    Bit rate : 640 Kbps
    Channel(s) : 6 channels
    Channel positions : Front: L C R, Side: L R, LFE
    Sampling rate : 48.0 KHz
    Bit depth : 16 bits
    Compression mode : Lossy
    Stream size : 476 MiB (19%)
    Language : English
    Default : Yes
    Forced : No


    Audio #2
    ID : 3
    Format : Vorbis
    Format settings, Floor : 1
    Codec ID : A_VORBIS
    Duration : 1h 43mn
    Bit rate mode : Variable
    Bit rate : 80.0 Kbps
    Channel(s) : 2 channels
    Sampling rate : 48.0 KHz
    Compression mode : Lossy
    Stream size : 59.5 MiB (2%)
    Writing library : aoTuV 20110424 (UTC 2011-04-24)
    Language : English
    Default : No
    Forced : No


    Text #1
    ID : 4
    Format : UTF-8
    Codec ID : S_TEXT/UTF8
    Codec ID/Info : UTF-8 Plain Text
    Language : English
    Default : Yes
    Forced : No


    Text #2
    ID : 5
    Format : UTF-8
    Codec ID : S_TEXT/UTF8
    Codec ID/Info : UTF-8 Plain Text
    Title : SDH
    Language : English
    Default : No
    Forced : No


    Menu
    00:00:00.000 : en:00:00:00.000
    00:08:04.567 : en:00:08:04.567
    00:14:39.420 : en:00:14:39.420
    00:17:05.483 : en:00:17:05.483
    00:22:03.322 : en:00:22:03.322
    00:30:54.269 : en:00:30:54.269
    00:35:10.191 : en:00:35:10.191
    00:41:47.755 : en:00:41:47.755
    00:48:58.310 : en:00:48:58.310
    00:56:55.787 : en:00:56:55.787
    01:06:43.666 : en:01:06:43.666
    01:11:06.262 : en:01:11:06.262
    01:17:09.333 : en:01:17:09.333
    01:22:20.185 : en:01:22:20.185
    01:29:54.472 : en:01:29:54.472
    01:35:40.860 : en:01:35:40.860

    SCREENS




    SOURCE
    ENCODE
    SOURCE
    ENCODE
    SOURCE
    ENCODE
    SOURCE
    ENCODE


    DOWNLOADS:

    MULTIUPLOAD

    Code:

    How to recovery missing files
    What are Recovery Volumes ? (".rev" files)
    Each recovery volume is able to reconstruct one missing RAR volume.
    WinRAR reconstructs missing and damaged volumes either when clicking on .rev file, or automatically, if it can not locate the next volume and finds the required number of .rev files when unpacking


    If any file missing or corrupted check available .rev files.
    ".rev" files (Recovery volumes) can recovery them.


    Example: Movie totally 8 part + 1 ".rev" file if part 8 dead download part01.rev extract movie normally. "rev" file in place of the missing parts




    Pass:
    Code:
    Last edited by Domell1; 04-23-2014 at 05:14 PM.
    Reply With Quote Reply With Quote
    Send PM  




Similar Threads

  1. [MULTI] The Transporter 2 2005 m720p BluRay AC3 x264-MiMiK
    By Domell1 in forum Graveyard
    Replies: 0
    Last Post: 04-23-2014, 04:59 PM
  2. [MULTI] The Transporter 2002 m720p BluRay x264-MiMiK
    By Domell1 in forum Graveyard
    Replies: 0
    Last Post: 04-23-2014, 04:59 PM
  3. [MULTI] Joy Ride 2001 m720p BluRay AC3 x264-MiMiK
    By Domell1 in forum Graveyard
    Replies: 0
    Last Post: 04-23-2014, 04:58 PM
  4. [MULTI] Frozen 2013 m720p AC3 x264-MiMiK
    By Domell1 in forum Graveyard
    Replies: 0
    Last Post: 04-23-2014, 04:56 PM
  5. [MULTI] Transporter 3 2008 m720p BluRay x264-BiRD
    By anathema in forum Graveyard
    Replies: 38
    Last Post: 01-02-2014, 12:38 AM

Tags for this Thread

Bookmarks

Posting Permissions

  • You may not post new threads
  • You may not post replies
  • You may not post attachments
  • You may not edit your posts
  •