Results 1 to 1 of 1
  1. #1
    Active Member
    This is Domell1's Country Flag

    Domell1's Avatar
    Join Date
    Jan 2013
    Posts
    204
    Total 'Thanks' Received by This User
    For This Post
    0

    Total
    28
    Rep Power
    8

    MULTI The Transporter 2002 m720p BluRay x264-MiMiK

    The Transporter (2002)



    MOVIE:[/center]
    Director: Corey Yuen (as Cory Yuen)
    Writer:: Luc Besson, Robert Mark Kamen
    Genres: Action | Crime | Thriller
    Country: USA, France
    Release Date: 2001
    Runtime: 92min
    Ratings: 6,8/10 from 181 584 users


    Plot:
    Ex-Special Forces operator Frank Martin lives what seems to be a quiet life along the French Mediterranean, hiring himself out as a mercenary "transporter" who moves goods--human or otherwise--from one place to another. No questions asked. Carrying out mysterious and sometimes dangerous tasks in his tricked-out BMW, Frank adheres to a strict set of rules, which he never breaks. Rule One: Never change the deal. Rule Two: No names--Frank doesn't want to know whom he's working for, or what he's transporting. Rule Three: never look in the package. Frank's newest transport seems no different from the countless ones he's done in the past. He's been hired by an American known only as "Wall Street" to make a delivery; but when Frank stops along the route, he notices his package is moving. Violating Rule Three, Frank looks inside the bag, finding its contents to be a beautiful, gagged woman. Frank's steadfast adherence to his other two rules--which make up his basic code of survival--also


    CAST:
    Jason Statham - Frank Martin
    Qi Shu - Lai (as Shu Qi)
    Matt Schulze - Wall Street
    François Berléand - Inspector Tarconi
    Ric Young - Mr. Kwai
    Doug Rand - Leader
    Didier Saint Melin - Boss


    INFO:

    SOURCE: BluRay
    AUDIO1: English AC3 5.1 640Kbps
    AUDIO2: English OGG 2.0 Commentary #1
    SUBTITLES: English (UTF-8)
    BITRATE: 2773 Kbps / 2pass / 12ref
    ASPECT RATIO: 2.35
    FRAME RATE: 23.967fps
    VIDEO CODEC: x264
    EXTENSIONS: mkv (Matroska)
    RESOLUTION: 1280x544p
    EXTRAS: Chapters
    SIZE: 2,25GiB

    x264 - mediainfo
    General
    Unique ID : 208705888494898857409980405009707762687 (0x9D034AC1F7FA53F7990E40C49A0903FF)
    Complete name : The Transporter 2002 m720p BluRay x264-MiMiK.mkv
    Format : Matroska
    Format version : Version 4 / Version 2
    File size : 2.25 GiB
    Duration : 1h 32mn
    Overall bit rate mode : Variable
    Overall bit rate : 3 489 Kbps
    Encoded date : UTC 2014-04-18 10:45:24
    Writing application : mkvmerge v6.8.0 ('Theme for Great Cities') 64bit built on Mar 2 2014 21:34:26
    Writing library : libebml v1.3.0 + libmatroska v1.4.1


    Video
    ID : 1
    Format : AVC
    Format/Info : Advanced Video Codec
    Format profile : High@L4.1
    Format settings, CABAC : Yes
    Format settings, ReFrames : 12 frames
    Codec ID : V_MPEG4/ISO/AVC
    Duration : 1h 32mn
    Bit rate : 2 773 Kbps
    Width : 1 280 pixels
    Height : 544 pixels
    Display aspect ratio : 2.35:1
    Frame rate mode : Constant
    Frame rate : 23.976 fps
    Color space : YUV
    Chroma subsampling : 4:2:0
    Bit depth : 8 bits
    Scan type : Progressive
    Bits/(Pixel*Frame) : 0.166
    Stream size : 1.74 GiB (77%)
    Writing library : x264 core 129 r2230 1cffe9f
    Encoding settings : cabac=1 / ref=12 / deblock=1:-3:-3 / analyse=0x3:0x133 / me=umh / subme=9 / psy=1 / psy_rd=1.00:0.05 / mixed_ref=1 / me_range=64 / chroma_me=1 / trellis=2 / 8x8dct=1 / cqm=0 / deadzone=21,11 / fast_pskip=0 / chroma_qp_offset=-3 / threads=8 / lookahead_threads=1 / sliced_threads=0 / nr=0 / decimate=1 / interlaced=0 / bluray_compat=0 / constrained_intra=0 / bframes=9 / b_pyramid=2 / b_adapt=1 / b_bias=0 / direct=3 / weightb=1 / open_gop=0 / weightp=2 / keyint=240 / keyint_min=23 / scenecut=40 / intra_refresh=0 / rc_lookahead=40 / rc=2pass / mbtree=0 / bitrate=2773 / ratetol=1.0 / qcomp=0.60 / qpmin=0 / qpmax=69 / qpstep=4 / cplxblur=20.0 / qblur=0.5 / vbv_maxrate=50000 / vbv_bufsize=65000 / nal_hrd=none / ip_ratio=1.40 / pb_ratio=1.30 / aq=1:0.90
    Default : Yes
    Forced : No


    Audio #1
    ID : 2
    Format : AC-3
    Format/Info : Audio Coding 3
    Mode extension : CM (complete main)
    Format settings, Endianness : Big
    Codec ID : A_AC3
    Duration : 1h 32mn
    Bit rate mode : Constant
    Bit rate : 640 Kbps
    Channel(s) : 6 channels
    Channel positions : Front: L C R, Side: L R, LFE
    Sampling rate : 48.0 KHz
    Bit depth : 16 bits
    Compression mode : Lossy
    Stream size : 422 MiB (18%)
    Language : English
    Default : Yes
    Forced : No


    Audio #2
    ID : 3
    Format : Vorbis
    Format settings, Floor : 1
    Codec ID : A_VORBIS
    Duration : 1h 32mn
    Bit rate mode : Variable
    Bit rate : 80.0 Kbps
    Channel(s) : 2 channels
    Sampling rate : 48.0 KHz
    Compression mode : Lossy
    Stream size : 52.7 MiB (2%)
    Writing library : aoTuV 20110424 (UTC 2011-04-24)
    Language : English
    Default : No
    Forced : No


    Text
    ID : 4
    Format : UTF-8
    Codec ID : S_TEXT/UTF8
    Codec ID/Info : UTF-8 Plain Text
    Language : English
    Default : Yes
    Forced : No


    Menu
    00:00:00.000 : en:00:00:00.000
    00:02:58.095 : en:00:02:58.095
    00:04:56.755 : en:00:04:56.755
    00:07:40.001 : en:00:07:40.001
    00:10:49.148 : en:00:10:49.148
    00:14:34.415 : en:00:14:34.415
    00:16:05.339 : en:00:16:05.339
    00:20:18.092 : en:00:20:18.092
    00:24:05.653 : en:00:24:05.653
    00:27:21.640 : en:00:27:21.640
    00:28:31.084 : en:00:28:31.084
    00:31:17.959 : en:00:31:17.959
    00:32:41.168 : en:00:32:41.168
    00:38:31.976 : en:00:38:31.976
    00:40:07.780 : en:00:40:07.780
    00:44:16.195 : en:00:44:16.195
    00:49:11.615 : en:00:49:11.615
    00:51:05.729 : en:00:51:05.729
    00:53:49.226 : en:00:53:49.226
    00:56:34.600 : en:00:56:34.600
    01:01:29.144 : en:01:01:29.144
    01:04:01.713 : en:01:04:01.713
    01:05:40.353 : en:01:05:40.353
    01:08:00.285 : en:01:08:00.285
    01:09:23.159 : en:01:09:23.159
    01:12:35.017 : en:01:12:35.017
    01:16:22.578 : en:01:16:22.578
    01:17:59.717 : en:01:17:59.717
    01:19:19.296 : en:01:19:19.296
    01:22:40.998 : en:01:22:40.998
    01:23:27.628 : en:01:23:27.628
    01:27:21.987 : en:01:27:21.987

    SCREENS




    SOURCE
    ENCODE
    SOURCE
    ENCODE
    SOURCE
    ENCODE
    SOURCE
    ENCODE


    DOWNLOADS:

    MULTIUPLOAD

    Code:

    How to recovery missing files
    What are Recovery Volumes ? (".rev" files)
    Each recovery volume is able to reconstruct one missing RAR volume.
    WinRAR reconstructs missing and damaged volumes either when clicking on .rev file, or automatically, if it can not locate the next volume and finds the required number of .rev files when unpacking


    If any file missing or corrupted check available .rev files.
    ".rev" files (Recovery volumes) can recovery them.


    Example: Movie totally 8 part + 1 ".rev" file if part 8 dead download part01.rev extract movie normally. "rev" file in place of the missing parts




    Pass:
    Code:
    Last edited by Domell1; 04-23-2014 at 05:13 PM.
    Reply With Quote Reply With Quote
    Send PM  




Similar Threads

  1. [MULTI] The Transporter 3 2008 m720p BluRay AC3 x264-MiMiK
    By Domell1 in forum Graveyard
    Replies: 0
    Last Post: 04-23-2014, 05:00 PM
  2. [MULTI] The Transporter 2 2005 m720p BluRay AC3 x264-MiMiK
    By Domell1 in forum Graveyard
    Replies: 0
    Last Post: 04-23-2014, 04:59 PM
  3. [MULTI] Frozen 2013 m720p AC3 x264-MiMiK
    By Domell1 in forum Graveyard
    Replies: 0
    Last Post: 04-23-2014, 04:56 PM
  4. Replies: 0
    Last Post: 04-23-2014, 04:55 PM
  5. [MULTI] The Transporter 2002 UNCUT Extended m720p BluRay x264-BiRD
    By anathema in forum Graveyard
    Replies: 32
    Last Post: 05-02-2013, 03:14 PM

Tags for this Thread

Bookmarks

Posting Permissions

  • You may not post new threads
  • You may not post replies
  • You may not post attachments
  • You may not edit your posts
  •