Results 1 to 1 of 1
  1. #1
    Active Member
    This is Domell1's Country Flag

    Domell1's Avatar
    Join Date
    Jan 2013
    Posts
    204
    Total 'Thanks' Received by This User
    For This Post
    0

    Total
    28
    Rep Power
    8

    MULTI Joy Ride 2001 m720p BluRay AC3 x264-MiMiK

    Joy Ride (2001)



    MOVIE:[/center]
    Director: John Dahl
    Writer:: Clay Tarver, J.J. Abrams
    Genres: Drama | Mystery | Thriller
    Country: USA
    Release Date: 2001
    Runtime: 97min
    Ratings: 6,6/10 from 44 842 users


    Plot:
    College student Lewis decides to drive across the country to see Venna, a friend who doesn't know that Lewis is interested in her romantically. Unfortunately for his plans, Lewis gets saddled with his raucous-spirited older brother, Fuller, whose on-the-road pranks get the brothers and Venna sucked into a nightmare when a psychotic truckdriver takes offense.


    CAST:
    Steve Zahn - Fuller Thomas
    Paul Walker - Lewis Thomas
    Leelee Sobieski - Venna
    Jessica Bowman - Charlotte
    Stuart Stone - Danny, Lewis' Roommate
    Basil Wallace - Car Salesman
    Brian Leckner - Officer Keeney
    Mary Wickliffe - Salt Lake City Police Desk Clerk
    ....


    INFO:

    SOURCE: BluRay
    AUDIO1: English AC3 5.1 640Kbps
    AUDIO2: English OGG 2.0 Commentary #1
    AUDIO2: English OGG 2.0 Commentary #2
    AUDIO2: English OGG 2.0 Commentary #3
    AUDIO2: English OGG 2.0 Commentary #4
    SUBTITLES: English (UTF-8)
    BITRATE: 2820 Kbps / 2pass / 12ref
    ASPECT RATIO: 2.35
    FRAME RATE: 23.967fps
    VIDEO CODEC: x264
    EXTENSIONS: mkv (Matroska)
    RESOLUTION: 1280x544p
    EXTRAS: Chapters
    SIZE: 2,56GiB

    x264 - mediainfo
    General
    Unique ID : 229103526391780602429346907494928517765 (0xAC5BBBF37FFBD22C90E34796BFF68A85)
    Complete name : Joe Ride 2001 m720p BluRay AC3 x264-MiMiK.mkv
    Format : Matroska
    Format version : Version 4 / Version 2
    File size : 2.56 GiB
    Duration : 1h 37mn
    Overall bit rate mode : Variable
    Overall bit rate : 3 770 Kbps
    Encoded date : UTC 2014-04-18 05:14:34
    Writing application : mkvmerge v6.8.0 ('Theme for Great Cities') 64bit built on Mar 2 2014 21:34:26
    Writing library : libebml v1.3.0 + libmatroska v1.4.1


    Video
    ID : 1
    Format : AVC
    Format/Info : Advanced Video Codec
    Format profile : High@L4.1
    Format settings, CABAC : Yes
    Format settings, ReFrames : 12 frames
    Codec ID : V_MPEG4/ISO/AVC
    Duration : 1h 37mn
    Bit rate : 2 820 Kbps
    Width : 1 280 pixels
    Height : 544 pixels
    Display aspect ratio : 2.35:1
    Frame rate mode : Constant
    Frame rate : 23.976 fps
    Color space : YUV
    Chroma subsampling : 4:2:0
    Bit depth : 8 bits
    Scan type : Progressive
    Bits/(Pixel*Frame) : 0.169
    Stream size : 1.86 GiB (73%)
    Writing library : x264 core 129 r2230 1cffe9f
    Encoding settings : cabac=1 / ref=12 / deblock=1:-3:-3 / analyse=0x3:0x133 / me=umh / subme=9 / psy=1 / psy_rd=1.00:0.05 / mixed_ref=1 / me_range=64 / chroma_me=1 / trellis=2 / 8x8dct=1 / cqm=0 / deadzone=21,11 / fast_pskip=0 / chroma_qp_offset=-3 / threads=8 / lookahead_threads=1 / sliced_threads=0 / nr=0 / decimate=1 / interlaced=0 / bluray_compat=0 / constrained_intra=0 / bframes=9 / b_pyramid=2 / b_adapt=1 / b_bias=0 / direct=3 / weightb=1 / open_gop=0 / weightp=2 / keyint=240 / keyint_min=23 / scenecut=40 / intra_refresh=0 / rc_lookahead=40 / rc=2pass / mbtree=0 / bitrate=2820 / ratetol=1.0 / qcomp=0.60 / qpmin=0 / qpmax=69 / qpstep=4 / cplxblur=20.0 / qblur=0.5 / vbv_maxrate=50000 / vbv_bufsize=65000 / nal_hrd=none / ip_ratio=1.40 / pb_ratio=1.30 / aq=1:0.90
    Default : Yes
    Forced : No


    Audio #1
    ID : 2
    Format : AC-3
    Format/Info : Audio Coding 3
    Mode extension : CM (complete main)
    Format settings, Endianness : Big
    Codec ID : A_AC3
    Duration : 1h 37mn
    Bit rate mode : Constant
    Bit rate : 640 Kbps
    Channel(s) : 6 channels
    Channel positions : Front: L C R, Side: L R, LFE
    Sampling rate : 48.0 KHz
    Bit depth : 16 bits
    Compression mode : Lossy
    Stream size : 445 MiB (17%)
    Language : English
    Default : Yes
    Forced : No


    Audio #2
    ID : 3
    Format : Vorbis
    Format settings, Floor : 1
    Codec ID : A_VORBIS
    Duration : 1h 37mn
    Bit rate mode : Variable
    Bit rate : 80.0 Kbps
    Channel(s) : 2 channels
    Sampling rate : 48.0 KHz
    Compression mode : Lossy
    Stream size : 55.6 MiB (2%)
    Writing library : aoTuV 20110424 (UTC 2011-04-24)
    Language : English
    Default : No
    Forced : No


    Audio #3
    ID : 4
    Format : Vorbis
    Format settings, Floor : 1
    Codec ID : A_VORBIS
    Duration : 1h 37mn
    Bit rate mode : Variable
    Bit rate : 80.0 Kbps
    Channel(s) : 2 channels
    Sampling rate : 48.0 KHz
    Compression mode : Lossy
    Stream size : 55.6 MiB (2%)
    Writing library : aoTuV 20110424 (UTC 2011-04-24)
    Language : English
    Default : No
    Forced : No


    Audio #4
    ID : 5
    Format : Vorbis
    Format settings, Floor : 1
    Codec ID : A_VORBIS
    Duration : 1h 37mn
    Bit rate mode : Variable
    Bit rate : 80.0 Kbps
    Channel(s) : 2 channels
    Sampling rate : 48.0 KHz
    Compression mode : Lossy
    Stream size : 55.6 MiB (2%)
    Writing library : aoTuV 20110424 (UTC 2011-04-24)
    Language : English
    Default : No
    Forced : No


    Audio #5
    ID : 6
    Format : Vorbis
    Format settings, Floor : 1
    Codec ID : A_VORBIS
    Duration : 1h 37mn
    Bit rate mode : Variable
    Bit rate : 80.0 Kbps
    Channel(s) : 2 channels
    Sampling rate : 48.0 KHz
    Compression mode : Lossy
    Stream size : 55.6 MiB (2%)
    Writing library : aoTuV 20110424 (UTC 2011-04-24)
    Language : English
    Default : No
    Forced : No


    Text
    ID : 7
    Format : UTF-8
    Codec ID : S_TEXT/UTF8
    Codec ID/Info : UTF-8 Plain Text
    Language : English
    Default : Yes
    Forced : No


    Menu
    00:00:00.000 : en:00:00:00.000
    00:01:53.113 : en:00:01:53.113
    00:03:49.187 : en:00:03:49.187
    00:06:03.405 : en:00:06:03.405
    00:10:04.813 : en:00:10:04.813
    00:11:40.116 : en:00:11:40.116
    00:15:52.827 : en:00:15:52.827
    00:17:21.707 : en:00:17:21.707
    00:21:27.912 : en:00:21:27.912
    00:25:58.515 : en:00:25:58.515
    00:31:03.612 : en:00:31:03.612
    00:36:08.375 : en:00:36:08.375
    00:39:21.985 : en:00:39:21.985
    00:42:22.206 : en:00:42:22.206
    00:48:36.372 : en:00:48:36.372
    00:50:40.829 : en:00:50:40.829
    00:54:37.191 : en:00:54:37.191
    00:58:30.382 : en:00:58:30.382
    01:00:51.731 : en:01:00:51.731
    01:02:46.346 : en:01:02:46.346
    01:04:39.501 : en:01:04:39.501
    01:08:00.451 : en:01:08:00.451
    01:12:18.042 : en:01:12:18.042
    01:15:57.678 : en:01:15:57.678
    01:18:10.060 : en:01:18:10.060
    01:24:02.829 : en:01:24:02.829
    01:25:54.107 : en:01:25:54.107
    01:29:02.587 : en:01:29:02.587
    01:31:40.620 : en:01:31:40.620
    01:33:05.288 : en:01:33:05.288

    SCREENS



    SOURCE
    ENCODE
    SOURCE
    ENCODE
    SOURCE
    ENCODE
    SOURCE
    ENCODE


    DOWNLOADS:

    MULTIUPLOAD

    Code:

    How to recovery missing files
    What are Recovery Volumes ? (".rev" files)
    Each recovery volume is able to reconstruct one missing RAR volume.
    WinRAR reconstructs missing and damaged volumes either when clicking on .rev file, or automatically, if it can not locate the next volume and finds the required number of .rev files when unpacking


    If any file missing or corrupted check available .rev files.
    ".rev" files (Recovery volumes) can recovery them.


    Example: Movie totally 8 part + 1 ".rev" file if part 8 dead download part01.rev extract movie normally. "rev" file in place of the missing parts




    Pass:
    Code:
    Last edited by Domell1; 04-23-2014 at 05:16 PM.
    Reply With Quote Reply With Quote
    Send PM  




Similar Threads

  1. [MULTI] The Transporter 3 2008 m720p BluRay AC3 x264-MiMiK
    By Domell1 in forum Graveyard
    Replies: 0
    Last Post: 04-23-2014, 05:00 PM
  2. [MULTI] The Transporter 2 2005 m720p BluRay AC3 x264-MiMiK
    By Domell1 in forum Graveyard
    Replies: 0
    Last Post: 04-23-2014, 04:59 PM
  3. [MULTI] The Transporter 2002 m720p BluRay x264-MiMiK
    By Domell1 in forum Graveyard
    Replies: 0
    Last Post: 04-23-2014, 04:59 PM
  4. [MULTI] Frozen 2013 m720p AC3 x264-MiMiK
    By Domell1 in forum Graveyard
    Replies: 0
    Last Post: 04-23-2014, 04:56 PM
  5. Replies: 0
    Last Post: 04-23-2014, 04:55 PM

Tags for this Thread

Bookmarks

Posting Permissions

  • You may not post new threads
  • You may not post replies
  • You may not post attachments
  • You may not edit your posts
  •