Results 1 to 1 of 1
  1. #1
    Active Member
    This is Domell1's Country Flag

    Domell1's Avatar
    Join Date
    Jan 2013
    Posts
    210
    Total 'Thanks' Received by This User
    For This Post
    0

    Total
    28
    Rep Power
    9

    MULTI Frozen 2013 m720p AC3 x264-MiMiK

    Frozen (2013)



    MOVIE:[/center]
    Director: Chris Buck, Jennifer Lee
    Writer:: Jennifer Lee, Hans Christian Andersen ...
    Genres: Animation | Adventure | Comedy
    Country: USA
    Release Date: 2013
    Runtime: 102min
    Ratings: 7,9/10 from 186 239 user


    Plot:
    Anna, a fearless optimist, sets off on an epic journey - teaming up with rugged mountain man Kristoff and his loyal reindeer Sven - to find her sister Elsa, whose icy powers have trapped the kingdom of Arendelle in eternal winter. Encountering Everest-like conditions, mystical trolls and a hilarious snowman named Olaf, Anna and Kristoff battle the elements in a race to save the kingdom. From the outside Anna's sister, Elsa looks poised, regal and reserved, but in reality, she lives in fear as she wrestles with a mighty secret-she was born with the power to create ice and snow. It's a beautiful ability, but also extremely dangerous. Haunted by the moment her magic nearly killed her younger sister Anna, Elsa has isolated herself, spending every waking minute trying to suppress her growing powers. Her mounting emotions trigger the magic, accidentally setting off an eternal winter that she can't stop. She fears she's becoming a monster and that no one, not even her sister, can help her.


    CAST:
    Kristen Bell - Anna (voice)
    Idina Menzel - Elsa (voice)
    Jonathan Groff - Kristoff (voice)
    Josh Gad - Olaf (voice)
    Santino Fontana - Hans (voice)
    Alan Tudyk - Duke (voice)
    Ciarán Hinds - Pabbie / Grandpa (voice)
    Chris Williams - Oaken (voice)
    Stephen J. Anderson - Kai (voice)
    Maia Wilson - Bulda (voice)
    Edie McClurg - Gerda (voice)
    Robert Pine - Bishop (voice)
    Maurice LaMarche - King (voice)
    Livvy Stubenrauch - Young Anna (voice)
    Eva Bella - Young Elsa (voice)


    INFO:

    SOURCE: BluRay
    AUDIO1: English AC3 5.1 640Kbps
    AUDIO2: English OGG 2.0 Commentary #1
    SUBTITLES: English (UTF-8)
    BITRATE: 2783 Kbps / 2pass / 11ref
    ASPECT RATIO: 2.22
    FRAME RATE: 23.967fps
    VIDEO CODEC: x264
    EXTENSIONS: mkv (Matroska)
    RESOLUTION: 1280x576p
    EXTRAS: Chapters
    SIZE: 2,50GiB

    x264 - mediainfo
    General
    Unique ID : 202047944892862498363581999134037010339 (0x980104CB4CB6618989382E68E7E867A3)
    Complete name : Frozen 2013 m720p AC3 x264-MiMiK.mkv
    Format : Matroska
    Format version : Version 4 / Version 2
    File size : 2.50 GiB
    Duration : 1h 42mn
    Overall bit rate mode : Variable
    Overall bit rate : 3 501 Kbps
    Encoded date : UTC 2014-04-17 17:46:31
    Writing application : mkvmerge v6.8.0 ('Theme for Great Cities') 64bit built on Mar 2 2014 21:34:26
    Writing library : libebml v1.3.0 + libmatroska v1.4.1


    Video
    ID : 1
    Format : AVC
    Format/Info : Advanced Video Codec
    Format profile : High@L4.1
    Format settings, CABAC : Yes
    Format settings, ReFrames : 11 frames
    Codec ID : V_MPEG4/ISO/AVC
    Duration : 1h 42mn
    Bit rate : 2 783 Kbps
    Width : 1 280 pixels
    Height : 576 pixels
    Display aspect ratio : 2.222
    Frame rate mode : Constant
    Frame rate : 23.976 fps
    Color space : YUV
    Chroma subsampling : 4:2:0
    Bit depth : 8 bits
    Scan type : Progressive
    Bits/(Pixel*Frame) : 0.157
    Stream size : 1.94 GiB (77%)
    Writing library : x264 core 129 r2230 1cffe9f
    Encoding settings : cabac=1 / ref=11 / deblock=1:-3:-3 / analyse=0x3:0x133 / me=umh / subme=9 / psy=1 / psy_rd=1.00:0.05 / mixed_ref=1 / me_range=64 / chroma_me=1 / trellis=2 / 8x8dct=1 / cqm=0 / deadzone=21,11 / fast_pskip=0 / chroma_qp_offset=-3 / threads=8 / lookahead_threads=1 / sliced_threads=0 / nr=0 / decimate=1 / interlaced=0 / bluray_compat=0 / constrained_intra=0 / bframes=9 / b_pyramid=2 / b_adapt=1 / b_bias=0 / direct=3 / weightb=1 / open_gop=0 / weightp=2 / keyint=240 / keyint_min=23 / scenecut=40 / intra_refresh=0 / rc_lookahead=40 / rc=2pass / mbtree=0 / bitrate=2783 / ratetol=1.0 / qcomp=0.60 / qpmin=0 / qpmax=69 / qpstep=4 / cplxblur=20.0 / qblur=0.5 / vbv_maxrate=50000 / vbv_bufsize=65000 / nal_hrd=none / ip_ratio=1.40 / pb_ratio=1.30 / aq=1:0.90
    Default : Yes
    Forced : No


    Audio #1
    ID : 2
    Format : AC-3
    Format/Info : Audio Coding 3
    Mode extension : CM (complete main)
    Format settings, Endianness : Big
    Codec ID : A_AC3
    Duration : 1h 42mn
    Bit rate mode : Constant
    Bit rate : 640 Kbps
    Channel(s) : 6 channels
    Channel positions : Front: L C R, Side: L R, LFE
    Sampling rate : 48.0 KHz
    Bit depth : 16 bits
    Compression mode : Lossy
    Stream size : 468 MiB (18%)
    Language : English
    Default : Yes
    Forced : No


    Audio #2
    ID : 3
    Format : Vorbis
    Format settings, Floor : 1
    Codec ID : A_VORBIS
    Duration : 1h 42mn
    Bit rate mode : Variable
    Bit rate : 80.0 Kbps
    Channel(s) : 2 channels
    Sampling rate : 48.0 KHz
    Compression mode : Lossy
    Stream size : 58.5 MiB (2%)
    Writing library : aoTuV 20110424 (UTC 2011-04-24)
    Language : English
    Default : No
    Forced : No


    Text
    ID : 4
    Format : UTF-8
    Codec ID : S_TEXT/UTF8
    Codec ID/Info : UTF-8 Plain Text
    Language : English
    Default : Yes
    Forced : No


    Menu
    00:00:00.000 : en:00:00:00.000
    00:05:59.818 : en:00:05:59.818
    00:11:37.947 : en:00:11:37.947
    00:19:53.734 : en:00:19:53.734
    00:31:03.195 : en:00:31:03.195
    00:38:39.484 : en:00:38:39.484
    00:44:21.284 : en:00:44:21.284
    00:50:51.507 : en:00:50:51.507
    00:57:48.381 : en:00:57:48.381
    01:02:57.399 : en:01:02:57.399
    01:09:36.047 : en:01:09:36.047
    01:13:34.869 : en:01:13:34.869
    01:18:07.599 : en:01:18:07.599
    01:22:33.740 : en:01:22:33.740
    01:27:10.809 : en:01:27:10.809
    01:32:33.506 : en:01:32:33.506

    SCREENS



    SOURCE
    ENCODE
    SOURCE
    ENCODE
    SOURCE
    ENCODE
    SOURCE
    ENCODE


    DOWNLOADS:

    MULTIUPLOAD

    Code:

    How to recovery missing files
    What are Recovery Volumes ? (".rev" files)
    Each recovery volume is able to reconstruct one missing RAR volume.
    WinRAR reconstructs missing and damaged volumes either when clicking on .rev file, or automatically, if it can not locate the next volume and finds the required number of .rev files when unpacking


    If any file missing or corrupted check available .rev files.
    ".rev" files (Recovery volumes) can recovery them.


    Example: Movie totally 8 part + 1 ".rev" file if part 8 dead download part01.rev extract movie normally. "rev" file in place of the missing parts




    Pass:
    Code:
    Last edited by Domell1; 04-23-2014 at 05:16 PM.
    Reply With Quote Reply With Quote
    Send PM  




Similar Threads

  1. [MULTI] The Transporter 3 2008 m720p BluRay AC3 x264-MiMiK
    By Domell1 in forum Graveyard
    Replies: 0
    Last Post: 04-23-2014, 05:00 PM
  2. [MULTI] The Transporter 2 2005 m720p BluRay AC3 x264-MiMiK
    By Domell1 in forum Graveyard
    Replies: 0
    Last Post: 04-23-2014, 04:59 PM
  3. [MULTI] The Transporter 2002 m720p BluRay x264-MiMiK
    By Domell1 in forum Graveyard
    Replies: 0
    Last Post: 04-23-2014, 04:59 PM
  4. [MULTI] Joy Ride 2001 m720p BluRay AC3 x264-MiMiK
    By Domell1 in forum Graveyard
    Replies: 0
    Last Post: 04-23-2014, 04:58 PM
  5. Replies: 0
    Last Post: 04-23-2014, 04:55 PM

Tags for this Thread

Bookmarks

Posting Permissions

  • You may not post new threads
  • You may not post replies
  • You may not post attachments
  • You may not edit your posts
  •