Results 1 to 1 of 1
  1. #1
    Active Member
    This is Domell1's Country Flag

    Domell1's Avatar
    Join Date
    Jan 2013
    Posts
    205
    Total 'Thanks' Received by This User
    For This Post
    0

    Total
    28
    Rep Power
    8

    UL Spirit Stallion of the Cimarron (2002) m720p BluRaz AC3 x264-MiMiK

    Spirit: Stallion of the Cimarron (2002)



    MOVIE:[/center]
    Director: Kelly Asbury, Lorna Cook
    Writer:: John Fusco (screenplay)
    Genres: Animation | Adventure | Comedy
    Country: USA
    Release Date: 2002
    Runtime: 83min
    Ratings: 6,9/10 from 29 721 users


    Plot:
    The mustang stallion Spirit grows up to proudly succeed his father as leader of the Cimarron herd in the unspoiled Wild West. When 'civilization' reaches Dakota territory, naive curiosity gets him caught by cowboys and sold to the US Cavalry. Its method of training by breaking a horse fails utterly on him. Just when the colonel intends to shoot Spirit, the equally indomitable captured young Lakota brave, Little Creek, escapes on his back. He also tricks him to a coral with his beloved mare, but shows respect and wins some trust. As the railroad arrives, the Indian village is wrecked and Spirit gets captured for use as a draft-horse. When the stallion realizes this project threatens his whole world, he escapes and unleashes the fury of a force of nature, ultimately teaming up with Little Creek


    CAST:
    Matt Damon - Spirit (voice)
    James Cromwell - The Colonel (voice)
    Daniel Studi - Little Creek (voice)
    Chopper Bernet - Sgt. Adams (voice)
    Jeff LeBeau - Murphy / Railroad Foreman (voice)
    John Rubano - Soldier (voice)
    Richard McGonagle - Bill (voice)
    Matt Levin - Joe (voice) (as Matthew Levin)
    Adam Paul - Pete (voice)
    Robert Cait - Jake (voice)
    Charles Napier - Roy (voice)
    Meredith Wells - Little Indian Girl (voice)
    Zahn McClarnon - Little Creek's Friend (voice)
    Michael Horse - Little Creek's Friend (voice)
    Donald Fullilove - Train Pull Foreman (voice) (as Don Fullilove)


    INFO:

    SOURCE: BluRay
    AUDIO1: English AC3 5.1 640Kbps
    AUDIO2: English OGG 2.0 Commentary #1
    SUBTITLES: 3x English (forced, SDH, commentary -- UTF-8)
    BITRATE: 2786 Kbps / 2pass / 12ref
    ASPECT RATIO: 2.35
    FRAME RATE: 23.967fps
    VIDEO CODEC: x264
    EXTENSIONS: mkv (Matroska)
    RESOLUTION: 1280x544p
    EXTRAS: Chapters
    SIZE: 2,04GiB

    x264 - mediainfo
    General
    Unique ID : 218879428112240417177775892805441795316 (0xA4AAA4FCB7D36A079789EFF11AE7B4F4)
    Format : Matroska
    Format version : Version 4 / Version 2
    File size : 2.04 GiB
    Duration : 1h 23mn
    Overall bit rate mode : Variable
    Overall bit rate : 3 502 Kbps
    Encoded date : UTC 2014-04-16 20:35:06
    Writing application : mkvmerge v6.8.0 ('Theme for Great Cities') 64bit built on Mar 2 2014 21:34:26
    Writing library : libebml v1.3.0 + libmatroska v1.4.1


    Video
    ID : 1
    Format : AVC
    Format/Info : Advanced Video Codec
    Format profile : High@L4.1
    Format settings, CABAC : Yes
    Format settings, ReFrames : 12 frames
    Codec ID : V_MPEG4/ISO/AVC
    Duration : 1h 23mn
    Bit rate : 2 786 Kbps
    Width : 1 280 pixels
    Height : 544 pixels
    Display aspect ratio : 2.35:1
    Frame rate mode : Constant
    Frame rate : 23.976 fps
    Color space : YUV
    Chroma subsampling : 4:2:0
    Bit depth : 8 bits
    Scan type : Progressive
    Bits/(Pixel*Frame) : 0.167
    Stream size : 1.58 GiB (77%)
    Writing library : x264 core 129 r2230 1cffe9f
    Encoding settings : cabac=1 / ref=12 / deblock=1:-3:-3 / analyse=0x3:0x133 / me=umh / subme=9 / psy=1 / psy_rd=1.00:0.05 / mixed_ref=1 / me_range=64 / chroma_me=1 / trellis=2 / 8x8dct=1 / cqm=0 / deadzone=21,11 / fast_pskip=0 / chroma_qp_offset=-3 / threads=8 / lookahead_threads=1 / sliced_threads=0 / nr=0 / decimate=1 / interlaced=0 / bluray_compat=0 / constrained_intra=0 / bframes=9 / b_pyramid=2 / b_adapt=1 / b_bias=0 / direct=3 / weightb=1 / open_gop=0 / weightp=2 / keyint=240 / keyint_min=23 / scenecut=40 / intra_refresh=0 / rc_lookahead=40 / rc=2pass / mbtree=0 / bitrate=2786 / ratetol=1.0 / qcomp=0.60 / qpmin=0 / qpmax=69 / qpstep=4 / cplxblur=20.0 / qblur=0.5 / vbv_maxrate=50000 / vbv_bufsize=65000 / nal_hrd=none / ip_ratio=1.40 / pb_ratio=1.30 / aq=1:0.90
    Default : Yes
    Forced : No


    Audio #1
    ID : 2
    Format : AC-3
    Format/Info : Audio Coding 3
    Mode extension : CM (complete main)
    Format settings, Endianness : Big
    Codec ID : A_AC3
    Duration : 1h 23mn
    Bit rate mode : Constant
    Bit rate : 640 Kbps
    Channel(s) : 6 channels
    Channel positions : Front: L C R, Side: L R, LFE
    Sampling rate : 48.0 KHz
    Bit depth : 16 bits
    Compression mode : Lossy
    Stream size : 382 MiB (18%)
    Language : English
    Default : Yes
    Forced : No


    Audio #2
    ID : 3
    Format : Vorbis
    Format settings, Floor : 1
    Codec ID : A_VORBIS
    Duration : 1h 23mn
    Bit rate mode : Variable
    Bit rate : 80.0 Kbps
    Channel(s) : 2 channels
    Sampling rate : 48.0 KHz
    Compression mode : Lossy
    Stream size : 47.8 MiB (2%)
    Title : commentary
    Writing library : aoTuV 20110424 (UTC 2011-04-24)
    Language : English
    Default : No
    Forced : No


    Text #1
    ID : 4
    Format : UTF-8
    Codec ID : S_TEXT/UTF8
    Codec ID/Info : UTF-8 Plain Text
    Language : English
    Default : Yes
    Forced : No


    Text #2
    ID : 5
    Format : UTF-8
    Codec ID : S_TEXT/UTF8
    Codec ID/Info : UTF-8 Plain Text
    Title : SDH
    Language : English
    Default : No
    Forced : No


    Text #3
    ID : 6
    Format : UTF-8
    Codec ID : S_TEXT/UTF8
    Codec ID/Info : UTF-8 Plain Text
    Title : commeantary
    Language : English
    Default : No
    Forced : No


    Menu
    00:00:00.000 : en:00:00:00.000
    00:07:32.410 : en:00:07:32.410
    00:11:29.856 : en:00:11:29.856
    00:18:15.011 : en:00:18:15.011
    00:20:40.281 : en:00:20:40.281
    00:23:22.359 : en:00:23:22.359
    00:25:35.492 : en:00:25:35.492
    00:30:11.184 : en:00:30:11.184
    00:35:24.831 : en:00:35:24.831
    00:38:47.951 : en:00:38:47.951
    00:42:06.149 : en:00:42:06.149
    00:43:52.547 : en:00:43:52.547
    00:48:10.638 : en:00:48:10.638
    00:53:29.289 : en:00:53:29.289
    00:57:18.810 : en:00:57:18.810
    01:00:49.437 : en:01:00:49.437
    01:04:26.863 : en:01:04:26.863
    01:11:14.562 : en:01:11:14.562
    01:14:07.234 : en:01:14:07.234
    01:16:12.109 : en:01:16:12.109

    SCREENS



    SOURCE
    ENCODE
    SOURCE
    ENCODE
    SOURCE
    ENCODE


    DOWNLOADS:

    UPLOADED

    Code:

    How to recovery missing files
    What are Recovery Volumes ? (".rev" files)
    Each recovery volume is able to reconstruct one missing RAR volume.
    WinRAR reconstructs missing and damaged volumes either when clicking on .rev file, or automatically, if it can not locate the next volume and finds the required number of .rev files when unpacking


    If any file missing or corrupted check available .rev files.
    ".rev" files (Recovery volumes) can recovery them.


    Example: Movie totally 8 part + 1 ".rev" file if part 8 dead download part01.rev extract movie normally. "rev" file in place of the missing parts




    Pass:
    Code:
    Last edited by Domell1; 04-23-2014 at 05:17 PM.
    Reply With Quote Reply With Quote
    Send PM  




Similar Threads

  1. [MULTI] Spirit: Stallion of the Cimarron (2002) Bluray - PCH
    By m-hddl in forum Graveyard
    Replies: 35
    Last Post: 01-18-2017, 02:19 AM
  2. [MULTI] Spirit: Stallion of the Cimarron (2002) BDRX - KRaLiMaRKo
    By pocapoca in forum Graveyard
    Replies: 0
    Last Post: 04-15-2014, 04:11 PM
  3. [FP] Spirit Stallion of the Cimarron (2002) Bluray - PCH
    By RobinHood in forum Graveyard
    Replies: 0
    Last Post: 04-14-2014, 07:05 PM
  4. [MULTI] Spirit Stallion of the Cimarron (2002) 720p BluRay X264-AMIABLE
    By heshamsheva in forum Graveyard
    Replies: 0
    Last Post: 04-06-2014, 02:15 AM
  5. [MULTI] Spirit Stallion of the Cimarron (2002) 1080p BluRay X264-AMIABLE
    By heshamsheva in forum Graveyard
    Replies: 0
    Last Post: 04-05-2014, 02:25 AM

Tags for this Thread

Bookmarks

Posting Permissions

  • You may not post new threads
  • You may not post replies
  • You may not post attachments
  • You may not edit your posts
  •